↑↓torrent.by
Поиск
Логин: Регистрация
Пароль: Восстановить пароль

Джокер / Joker (2019) WEBRip 1080p | HDRezka Studio

Скачать dzhoker-joker-2019-webrip-1080p-hdrezka-studio.torrent
U Магнитная ссылка Размер: 10.91 GB Раздают: 107 Качают: 52 Добавлен: 2019-11-20 04:40:22
Джокер / Joker (2019) WEBRip 1080p | HDRezka Studio

Название: Джокер
Оригинальное название: Joker
Год выхода: 2019
Жанр: Триллер, драма, криминал
Режиссер: Тодд Филлипс
В ролях: Хоакин Феникс, Роберт Де Ниро, Зази Битц, Джоли Чань, Марк Мэрон, Фрэнсис Конрой, Мэри Кейт Малат, Ши Уигхэм, Брайан Коллен, Бретт Каллен, Билл Кэмп, Гленн Флешлер, Ли Гилл, Джош Пэйс

О фильме: Готэм, начало 1980-х годов. Комик Артур Флек живет с больной матерью, которая с детства учит его «ходить с улыбкой». Пытаясь нести в мир хорошее и дарить людям радость, Артур сталкивается с человеческой жестокостью и постепенно приходит к выводу, что этот мир получит от него не добрую улыбку, а ухмылку злодея Джокера.

Страна: Канада, США
Студия: Warner Bros., Village Roadshow Pictures, DC Entertainment, DC Comics, 22 & Indiana Pictures
Продолжительность: 01:55:32
Перевод: Профессиональный многоголосый (HDRezka Studio)

Качество: WEBRip 1080p
Видео: MPEG-4 AVC, 12900 Кбит/с, 1920x1040, 58.823 Кадр/с
Звук: Русский (AC3, 2 ch, 192 Kbit/s), английский (AC3, 2 ch, 384 Kbit/s)
Субтитры: Русские (полные, отключаемые (от Suffering Joke)), английские (полные, отключаемые), корейские (вшитые)
Семпл

Без рекламы.


[+] Медиа Инфо
General
Unique ID                   : 181849647471317415361354609037637605060 (0x88CEF7D84B247AD44FA989F660EC56C4)
Complete name               : D:Joker.2019.1080p.WEBRip.mkv
Format                      : Matroska
Format version              : Version 4
File size                   : 10.9 GiB
Duration                    : 1 h 55 min
Overall bit rate            : 13.5 Mb/s
Encoded date                : UTC 2019-11-19 22:25:56
Writing application         : mkvmerge v37.0.0 ('Leave It') 64-bit
Writing library             : libebml v1.3.9 + libmatroska v1.5.2

Video
ID                          : 1
Format                      : AVC
Format/Info                 : Advanced Video Codec
Format profile              : High@L4.1
Format settings             : CABAC / 4 Ref Frames
Format settings, CABAC      : Yes
Format settings, Reference  : 4 frames
Codec ID                    : V_MPEG4/ISO/AVC
Duration                    : 1 h 55 min
Bit rate                    : 12.9 Mb/s
Width                       : 1 920 pixels
Height                      : 1 040 pixels
Display aspect ratio        : 1.85:1
Frame rate mode             : Constant
Frame rate                  : 58.823 FPS
Color space                 : YUV
Chroma subsampling          : 4:2:0
Bit depth                   : 8 bits
Scan type                   : Progressive
Bits/(Pixel*Frame)          : 0.110
Stream size                 : 10.4 GiB (96%)
Writing library             : x264 core 142 r2479 dd79a61
Encoding settings           : cabac=1 / ref=4 / deblock=1:0:0 / analyse=0x3:0x113 / me=umh / subme=8 / psy=1 / psy_rd=1.00:0.00 / mixed_ref=1 / me_range=16 / chroma_me=1 / trellis=1 / 8x8dct=1 / cqm=0 / deadzone=21,11 / fast_pskip=1 / chroma_qp_offset=-2 / threads=24 / lookahead_threads=4 / sliced_threads=0 / nr=0 / decimate=1 / interlaced=0 / bluray_compat=0 / constrained_intra=0 / bframes=3 / b_pyramid=2 / b_adapt=2 / b_bias=0 / direct=3 / weightb=1 / open_gop=0 / weightp=2 / keyint=590 / keyint_min=59 / scenecut=40 / intra_refresh=0 / rc_lookahead=50 / rc=abr / mbtree=1 / bitrate=12899 / ratetol=1.0 / qcomp=0.60 / qpmin=0 / qpmax=69 / qpstep=4 / vbv_maxrate=62500 / vbv_bufsize=78125 / nal_hrd=none / filler=0 / ip_ratio=1.40 / aq=1:1.00
Language                    : English
Default                     : Yes
Forced                      : No
Color range                 : Limited
Color primaries             : BT.709
Transfer characteristics    : BT.709
Matrix coefficients         : BT.709

Audio #1
ID                          : 2
Format                      : AC-3
Format/Info                 : Audio Coding 3
Commercial name             : Dolby Digital
Codec ID                    : A_AC3
Duration                    : 1 h 55 min
Bit rate mode               : Constant
Bit rate                    : 192 kb/s
Channel(s)                  : 2 channels
Channel layout              : L R
Sampling rate               : 48.0 kHz
Frame rate                  : 31.250 FPS (1536 SPF)
Bit depth                   : 16 bits
Compression mode            : Lossy
Delay relative to video     : -34 ms
Stream size                 : 159 MiB (1%)
Title                       : HDREZKA STUDIO
Language                    : Russian
Service kind                : Complete Main
Default                     : Yes
Forced                      : No

Audio #2
ID                          : 3
Format                      : AC-3
Format/Info                 : Audio Coding 3
Commercial name             : Dolby Digital
Codec ID                    : A_AC3
Duration                    : 1 h 55 min
Bit rate mode               : Constant
Bit rate                    : 384 kb/s
Channel(s)                  : 2 channels
Channel layout              : L R
Sampling rate               : 48.0 kHz
Frame rate                  : 31.250 FPS (1536 SPF)
Bit depth                   : 16 bits
Compression mode            : Lossy
Delay relative to video     : 80 ms
Stream size                 : 317 MiB (3%)
Language                    : English
Service kind                : Complete Main
Default                     : No
Forced                      : No

Text #1
ID                          : 4
Format                      : UTF-8
Codec ID                    : S_TEXT/UTF8
Codec ID/Info               : UTF-8 Plain Text
Duration                    : 1 h 53 min
Bit rate                    : 78 b/s
Count of elements           : 1124
Stream size                 : 65.2 KiB (0%)
Language                    : Russian
Default                     : No
Forced                      : No

Text #2
ID                          : 5
Format                      : UTF-8
Codec ID                    : S_TEXT/UTF8
Codec ID/Info               : UTF-8 Plain Text
Duration                    : 1 h 53 min
Bit rate                    : 44 b/s
Count of elements           : 1124
Stream size                 : 37.2 KiB (0%)
Language                    : English
Default                     : No
Forced                      : No



Скриншоты:
[+] Всего файлов в раздаче - 1:
Joker.2019.1080p.WEBRip.mkv10.91 GB

Показать еще раздачи по запросу джокер:
2020-01-21 U Джокер / Joker (2019) BDRip 720p от k.e.n & MegaPeer | D, P, A | Лицензия 5.59 GB ↑ 3 ↓ 44
2020-01-13 U Джокер / Joker (2019) BDRip от HQ-ViDEO | D | Лицензия 2.18 GB ↑ 38 ↓ 24
2020-01-08 U Джокер / Joker (2019) BDRip-AVC | Лицензия 748.91 MB ↑ 38 ↓ 5
2019-12-31 U Джокер / Joker (2019) BDRip 720p | D, P, A 5.13 GB ↑ 34 ↓ 10
2019-12-29 U Джокер / Joker (2019) BDRip 720p от Scarabey | Лицензия 4.75 GB ↑ 200 ↓ 26
2019-12-28 U Джокер / Joker (2019) BDRip-AVC от Generalfilm | Лицензия 1.64 GB ↑ 261 ↓ 75
2019-12-28 U Джокер / Joker (2019) HDRip от Scarabey | Лицензия 1.44 GB ↑ 256 ↓ 16

Отзывы
Зарегистрируйтесь чтобы добавить комментарий.
Обратная связь
Copyleft ©