↑↓torrent.by
Поиск
Логин: Регистрация
Пароль: Восстановить пароль

Джокер / Joker (2019) WEBRip 720p от Enigma | HDRezka Studio, BadBajo

Скачать dzhoker-joker-2019-webrip-720p-ot-enigma-hdrezka-studio-badbajo.torrent
U Магнитная ссылка Размер: 5.42 GB Раздают: 614 Качают: 346 Добавлен: 2019-11-20 18:04:58
Джокер / Joker (2019) WEBRip 720p от Enigma | HDRezka Studio, BadBajo

Название: Джокер
Оригинальное название: Joker
Год выпуска: 2019
Жанр:  Триллер, драма, криминал
Режиссер: Тодд Филлипс
В ролях: Хоакин Феникс, Роберт Де Ниро, Зази Битц, Джоли Чань, Марк Мэрон, Фрэнсис Конрой, Мэри Кейт Малат, Ши Уигхэм, Брайан Коллен, Бретт Каллен

Описание:  
Готэм, начало 1980-х годов. Комик Артур Флек живет с больной матерью, которая с детства учит его «ходить с улыбкой». Пытаясь нести в мир хорошее и дарить людям радость, Артур сталкивается с человеческой жестокостью и постепенно приходит к выводу, что этот мир получит от него не добрую улыбку, а ухмылку злодея Джокера.

Выпущено: Канада, США, Warner Bros., Village Roadshow Pictures, DC Entertainment, DC Comics, 22 & Indiana Pictures
Продолжительность: 01:55:32
Перевод: Профессиональный многоголосый (HDRezka Studio)
Авторский (одноголосый, закадровый) | А.Важенин [BadBajo]

Формат: MKV
Качество: WEBRip 720p | от walledoll
Видео: AVC/H.264, 1280x692, ~5500 Кbps, 24 fps
Звук:
Аудио 1: AC3, 2 ch, 192 Kbps - Русский (MVO HDRezka Studio)
Аудио 2: AC3, 2 ch, 448 Kbps - Русский (AVO BadBajo)
Аудио 3: AC3, 2 ch, 192 Kbps - Украинский (Postmodern)
Аудио 4: AC3, 2 ch, 384 Kbps - Английский
Субтитры: Русские (forced, full (Enigma)), английские, корейские (хардсаб)

Автор релиза:


[+] ОтчетМедиаИнфо

General
Unique ID                                : 235283313760876452139081650403480529144 (0xB101EAFE0763FD4195FF969EE10568F8)
Complete name                            : F:Joker.2019.2xRus.HDRip.720p.Enigma.mkv
Format                                   : Matroska
Format version                           : Version 2
File size                                : 5.42 GiB
Duration                                 : 1 h 55 min
Overall bit rate                         : 6 718 kb/s
Movie name                               : Joker 2019
Encoded date                             : UTC 2019-11-20 00:24:20
Writing application                      : mkvmerge v5.6.0 ('Kenya Kane') built on May 27 2012 16:44:04
Writing library                          : libebml v1.2.3 + libmatroska v1.3.0
Cover                                    : Yes
Attachments                              : cover.jpg / small_cover.jpg

Video
ID                                       : 1
Format                                   : AVC
Format/Info                              : Advanced Video Codec
Format profile                           : High@L4.1
Format settings, CABAC                   : Yes
Format settings, ReFrames                : 9 frames
Codec ID                                 : V_MPEG4/ISO/AVC
Duration                                 : 1 h 55 min
Bit rate                                 : 5 500 kb/s
Width                                    : 1 280 pixels
Height                                   : 692 pixels
Display aspect ratio                     : 1.85:1
Frame rate mode                          : Constant
Frame rate                               : 24.000 FPS
Color space                              : YUV
Chroma subsampling                       : 4:2:0
Bit depth                                : 8 bits
Scan type                                : Progressive
Bits/(Pixel*Frame)                       : 0.259
Stream size                              : 4.33 GiB (80%)
Writing library                          : x264 core 157 r2945 72db437
Encoding settings                        : cabac=1 / ref=9 / deblock=1:-3:-3 / analyse=0x3:0x133 / me=umh / subme=11 / psy=1 / psy_rd=1.00:0.00 / mixed_ref=1 / me_range=32 / chroma_me=1 / trellis=2 / 8x8dct=1 / cqm=0 / deadzone=21,11 / fast_pskip=0 / chroma_qp_offset=-2 / threads=12 / lookahead_threads=3 / sliced_threads=0 / nr=0 / decimate=1 / interlaced=0 / bluray_compat=0 / constrained_intra=0 / bframes=10 / b_pyramid=2 / b_adapt=2 / b_bias=0 / direct=1 / weightb=1 / open_gop=0 / weightp=2 / keyint=240 / keyint_min=23 / scenecut=40 / intra_refresh=0 / rc_lookahead=60 / rc=abr / mbtree=0 / bitrate=5500 / ratetol=1.0 / qcomp=0.60 / qpmin=0 / qpmax=69 / qpstep=4 / vbv_maxrate=30000 / vbv_bufsize=33000 / nal_hrd=none / filler=0 / ip_ratio=1.40 / pb_ratio=1.30 / aq=3:0.80
Language                                 : English
Default                                  : Yes
Forced                                   : No

Audio #1
ID                                       : 2
Format                                   : AC-3
Format/Info                              : Audio Coding 3
Mode extension                           : CM (complete main)
Format settings, Endianness              : Big
Codec ID                                 : A_AC3
Duration                                 : 1 h 55 min
Bit rate mode                            : Constant
Bit rate                                 : 192 kb/s
Channel(s)                               : 2 channels
Channel positions                        : Front: L R
Sampling rate                            : 48.0 kHz
Frame rate                               : 31.250 FPS (1536 spf)
Compression mode                         : Lossy
Stream size                              : 159 MiB (3%)
Title                                    : HDREzka
Language                                 : Russian
Default                                  : Yes
Forced                                   : Yes

Audio #2
ID                                       : 3
Format                                   : AC-3
Format/Info                              : Audio Coding 3
Mode extension                           : CM (complete main)
Format settings, Endianness              : Big
Codec ID                                 : A_AC3
Duration                                 : 1 h 55 min
Bit rate mode                            : Constant
Bit rate                                 : 448 kb/s
Channel(s)                               : 2 channels
Channel positions                        : Front: L R
Sampling rate                            : 48.0 kHz
Frame rate                               : 31.250 FPS (1536 spf)
Compression mode                         : Lossy
Stream size                              : 370 MiB (7%)
Title                                    : AVO - BadBajo
Language                                 : Russian
Default                                  : No
Forced                                   : No

Audio #3
ID                                       : 4
Format                                   : AC-3
Format/Info                              : Audio Coding 3
Mode extension                           : CM (complete main)
Format settings, Endianness              : Big
Codec ID                                 : A_AC3
Duration                                 : 1 h 55 min
Bit rate mode                            : Constant
Bit rate                                 : 192 kb/s
Channel(s)                               : 2 channels
Channel positions                        : Front: L R
Sampling rate                            : 48.0 kHz
Frame rate                               : 31.250 FPS (1536 spf)
Compression mode                         : Lossy
Stream size                              : 159 MiB (3%)
Language                                 : Ukrainian
Default                                  : No
Forced                                   : No

Audio #4
ID                                       : 5
Format                                   : AC-3
Format/Info                              : Audio Coding 3
Mode extension                           : CM (complete main)
Format settings, Endianness              : Big
Codec ID                                 : A_AC3
Duration                                 : 1 h 55 min
Bit rate mode                            : Constant
Bit rate                                 : 384 kb/s
Channel(s)                               : 2 channels
Channel positions                        : Front: L R
Sampling rate                            : 48.0 kHz
Frame rate                               : 31.250 FPS (1536 spf)
Compression mode                         : Lossy
Delay relative to video                  : 114 ms
Stream size                              : 317 MiB (6%)
Language                                 : English
Default                                  : No
Forced                                   : No

Text #1
ID                                       : 6
Format                                   : UTF-8
Codec ID                                 : S_TEXT/UTF8
Codec ID/Info                            : UTF-8 Plain Text
Title                                    : Forced
Language                                 : Russian
Default                                  : Yes
Forced                                   : No

Text #2
ID                                       : 7
Format                                   : UTF-8
Codec ID                                 : S_TEXT/UTF8
Codec ID/Info                            : UTF-8 Plain Text
Title                                    : Full (Enigma)
Language                                 : Russian
Default                                  : No
Forced                                   : No

Text #3
ID                                       : 8
Format                                   : UTF-8
Codec ID                                 : S_TEXT/UTF8
Codec ID/Info                            : UTF-8 Plain Text
Language                                 : English
Default                                  : No
Forced                                   : No




Скриншоты:
[+] Всего файлов в раздаче - 1:
Joker.2019.2xRus.HDRip.720p.Enigma.mkv5.42 GB

Показать еще раздачи по запросу джокер:
2020-01-21 U Джокер / Joker (2019) BDRip 720p от k.e.n & MegaPeer | D, P, A | Лицензия 5.59 GB ↑ 3 ↓ 44
2020-01-13 U Джокер / Joker (2019) BDRip от HQ-ViDEO | D | Лицензия 2.18 GB ↑ 38 ↓ 24
2020-01-08 U Джокер / Joker (2019) BDRip-AVC | Лицензия 748.91 MB ↑ 38 ↓ 5
2019-12-31 U Джокер / Joker (2019) BDRip 720p | D, P, A 5.13 GB ↑ 34 ↓ 10
2019-12-29 U Джокер / Joker (2019) BDRip 720p от Scarabey | Лицензия 4.75 GB ↑ 200 ↓ 26
2019-12-28 U Джокер / Joker (2019) BDRip-AVC от Generalfilm | Лицензия 1.64 GB ↑ 261 ↓ 75
2019-12-28 U Джокер / Joker (2019) HDRip от Scarabey | Лицензия 1.44 GB ↑ 256 ↓ 16

Отзывы
Зарегистрируйтесь чтобы добавить комментарий.
Обратная связь
Copyleft ©