↑↓torrent.by
Поиск
Логин: Регистрация
Пароль: Восстановить пароль

Джокер / Joker (2019) WEBRip 1080p | P, A, L

Скачать dzhoker-joker-2019-webrip-1080p-p-a-l.torrent
U Магнитная ссылка Размер: 11.74 GB Раздают: 412 Качают: 314 Добавлен: 2019-11-20 18:05:15
Джокер / Joker (2019) WEBRip 1080p | P, A, L

Джокер / Joker

Страна: США  Канада
Производство: Warner Bros., DC Entertainment, Village Roadshow Pictures, Bron Studios
Год выпуска: 2019
Жанр:  триллер, драма, криминал
Продолжительность: 01:55:41

Режиссер: Тодд Филлипс / Todd Phillips
Авторы сценария: Тодд Филлипс, Скотт Сильвер, Боб Кейн
В ролях: Хоакин Феникс, Роберт Де Ниро, Зази Битц, Фрэнсис Конрой, Бретт Каллен, Шей Уигэм, Билл Кэмп, Гленн Флешлер, Ли Гилл, Джош Пэйс, Рокко Луна, Марк Мэрон, Сондра Джеймс, Мерфи Гайер, Дуглас Ходж, Данте Перейра-Олсон, Кэрри Луиз Путрелло, Шэрон Вашингтон, Ханна Гросс, Фрэнк Вуд

Описание: Готэм, начало 1980-х годов. Комик Артур Флек живёт с больной матерью, которая с детства учит его «ходить с улыбкой». Пытаясь нести в мир хорошее и дарить людям радость, Артур сталкивается с человеческой жестокостью и постепенно приходит к выводу, что этот мир получит от него не добрую улыбку, а ухмылку злодея Джокера...

Перевод №1: Профессиональный (многоголосый, закадровый) | HDRezka Studio
Перевод №2: Любительский (многоголосый, закадровый) | Mallorn / без цензуры
Перевод №3: Авторский (одноголосый, закадровый) | BadBajo (Андрей Важенин)
Субтитры: русские (foced), русские (full) от Enigma, русские (full) от Mallorn, английские (full), корейские (hardsub)

Качество: WEBRip 1080p
Формат: MKV
Видео кодек: AVC
Аудио кодек: АС3
Видео: 1920x1040 (1.85:1), 58.823 fps, MPEG-4 AVC ~12.9 Мbps avg
Аудио №1: 48 kHz, AC3 Dolby Digital, 2/0 (L,R) ch, ~192 kbps avg | RUS / HDRezka Studio
Аудио №2: 48 kHz, AC3 Dolby Digital, 2/0 (L,R) ch, ~384 kbps avg | RUS / Mallorn
Аудио №3: 48 kHz, AC3 Dolby Digital, 2/0 (L,R) ch, ~448 kbps avg | RUS / BadBajo
Аудио №4: 48 kHz, AC3 Dolby Digital, 2/0 (L,R) ch, ~192 kbps avg | UKR / Postmodern
Аудио №5: 48 kHz, AC3 Dolby Digital, 2/0 (L,R) ch, ~384 kbps avg | ENG / Original
Формат субтитров: UTF-8 Plain Text

Дата премьеры (мир): 31 августа 2019
Дата премьеры (РФ): 3 октября 2019, «Каро-Премьер»


[+] Media Info
General
Уникальный идентификатор                 : 281479212502770667803853132145240904550 (0xD3C2ECA60369AFE617AB97ABCB191366)
Полное имя                               : Joker.WEBRip.1080p_zh.mkv
Формат                                   : Matroska
Версия формата                           : Version 4
Размер файла                             : 11,7 Гбайт
Продолжительность                        : 1 ч. 55 м.
Общий поток                              : 14,5 Мбит/сек
Название фильма                          : Joker.WEBRip.1080p_zh
Дата кодирования                         : UTC 2019-11-20 06:50:43
Программа кодирования                    : mkvmerge v35.0.0 ('All The Love In The World') 32-bit
Библиотека кодирования                   : libebml v1.3.9 + libmatroska v1.5.2

Видео
Идентификатор                            : 1
Формат                                   : AVC
Формат/Информация                        : Advanced Video Codec
Профиль формата                          : High@L4.1
Настройки формата                        : CABAC / 4 Ref Frames
Параметр CABAC формата                   : Да
Параметр RefFrames формата               : 4 кадра
Идентификатор кодека                     : V_MPEG4/ISO/AVC
Продолжительность                        : 1 ч. 55 м.
Битрейт                                  : 12,9 Мбит/сек
Ширина                                   : 1920 пикселей
Высота                                   : 1040 пикселей
Соотношение сторон                       : 1,85:1
Режим частоты кадров                     : Постоянный
Частота кадров                           : 58,823 кадров/сек
Цветовое пространство                    : YUV
Субдискретизация насыщенности            : 4:2:0
Битовая глубина                          : 8 бит
Тип развёртки                            : Прогрессивная
Бит/(Пиксели*Кадры)                      : 0.110
Размер потока                            : 10,4 Гбайт (89%)
Заголовок                                : Joker.WEBRip.1080p
Библиотека кодирования                   : x264 core 142 r2479 dd79a61
Настройки программы                      : cabac=1 / ref=4 / deblock=1:0:0 / analyse=0x3:0x113 / me=umh / subme=8 / psy=1 / psy_rd=1.00:0.00 / mixed_ref=1 / me_range=16 / chroma_me=1 / trellis=1 / 8x8dct=1 / cqm=0 / deadzone=21,11 / fast_pskip=1 / chroma_qp_offset=-2 / threads=24 / lookahead_threads=4 / sliced_threads=0 / nr=0 / decimate=1 / interlaced=0 / bluray_compat=0 / constrained_intra=0 / bframes=3 / b_pyramid=2 / b_adapt=2 / b_bias=0 / direct=3 / weightb=1 / open_gop=0 / weightp=2 / keyint=590 / keyint_min=59 / scenecut=40 / intra_refresh=0 / rc_lookahead=50 / rc=abr / mbtree=1 / bitrate=12899 / ratetol=1.0 / qcomp=0.60 / qpmin=0 / qpmax=69 / qpstep=4 / vbv_maxrate=62500 / vbv_bufsize=78125 / nal_hrd=none / filler=0 / ip_ratio=1.40 / aq=1:1.00
Язык                                     : English
Default                                  : Да
Forced                                   : Нет
Цветовой диапазон                        : Limited
Основные цвета                           : BT.709
Характеристики трансфера                 : BT.709
Коэффициенты матрицы                     : BT.709

Аудио #1
Идентификатор                            : 2
Формат                                   : AC-3
Формат/Информация                        : Audio Coding 3
Коммерческое название                    : Dolby Digital
Идентификатор кодека                     : A_AC3
Продолжительность                        : 1 ч. 55 м.
Вид битрейта                             : Постоянный
Битрейт                                  : 192 Кбит/сек
Каналы                                   : 2 канала
ChannelLayout                            : L R
Частота                                  : 48,0 КГц
Частота кадров                           : 31,250 кадров/сек (1536 SPF)
Битовая глубина                          : 16 бит
Метод сжатия                             : С потерями
Задержка видео                           : -34 мс.
Размер потока                            : 159 Мбайт (1%)
Заголовок                                : MVO [HDRezka Studio]
Язык                                     : Russian
Default                                  : Да
Forced                                   : Да

Аудио #2
Идентификатор                            : 3
Формат                                   : AC-3
Формат/Информация                        : Audio Coding 3
Коммерческое название                    : Dolby Digital
Идентификатор кодека                     : A_AC3
Продолжительность                        : 1 ч. 55 м.
Вид битрейта                             : Постоянный
Битрейт                                  : 384 Кбит/сек
Каналы                                   : 2 канала
ChannelLayout                            : L R
Частота                                  : 48,0 КГц
Частота кадров                           : 31,250 кадров/сек (1536 SPF)
Битовая глубина                          : 16 бит
Метод сжатия                             : С потерями
Задержка видео                           : -34 мс.
Размер потока                            : 317 Мбайт (3%)
Заголовок                                : MVO [Mallorn]
Язык                                     : Russian
Default                                  : Нет
Forced                                   : Нет

Аудио #3
Идентификатор                            : 4
Формат                                   : AC-3
Формат/Информация                        : Audio Coding 3
Коммерческое название                    : Dolby Digital
Идентификатор кодека                     : A_AC3
Продолжительность                        : 1 ч. 55 м.
Вид битрейта                             : Постоянный
Битрейт                                  : 448 Кбит/сек
Каналы                                   : 2 канала
ChannelLayout                            : L R
Частота                                  : 48,0 КГц
Частота кадров                           : 31,250 кадров/сек (1536 SPF)
Битовая глубина                          : 16 бит
Метод сжатия                             : С потерями
Задержка видео                           : -34 мс.
Размер потока                            : 370 Мбайт (3%)
Заголовок                                : VO [BadBajo]
Язык                                     : Russian
Default                                  : Нет
Forced                                   : Нет

Аудио #4
Идентификатор                            : 5
Формат                                   : AC-3
Формат/Информация                        : Audio Coding 3
Коммерческое название                    : Dolby Digital
Идентификатор кодека                     : A_AC3
Продолжительность                        : 1 ч. 55 м.
Вид битрейта                             : Постоянный
Битрейт                                  : 192 Кбит/сек
Каналы                                   : 2 канала
ChannelLayout                            : L R
Частота                                  : 48,0 КГц
Частота кадров                           : 31,250 кадров/сек (1536 SPF)
Битовая глубина                          : 16 бит
Метод сжатия                             : С потерями
Задержка видео                           : -34 мс.
Размер потока                            : 159 Мбайт (1%)
Заголовок                                : Dub [Postmodern, Line]
Язык                                     : Ukrainian
Default                                  : Нет
Forced                                   : Нет

Аудио #5
Идентификатор                            : 6
Формат                                   : AC-3
Формат/Информация                        : Audio Coding 3
Коммерческое название                    : Dolby Digital
Идентификатор кодека                     : A_AC3
Продолжительность                        : 1 ч. 55 м.
Вид битрейта                             : Постоянный
Битрейт                                  : 384 Кбит/сек
Каналы                                   : 2 канала
ChannelLayout                            : L R
Частота                                  : 48,0 КГц
Частота кадров                           : 31,250 кадров/сек (1536 SPF)
Битовая глубина                          : 16 бит
Метод сжатия                             : С потерями
Задержка видео                           : 80 мс.
Размер потока                            : 317 Мбайт (3%)
Заголовок                                : Original
Язык                                     : English
Default                                  : Нет
Forced                                   : Нет

Текст #1
Идентификатор                            : 7
Формат                                   : UTF-8
Идентификатор кодека                     : S_TEXT/UTF8
Идентификатор кодека/Информация          : UTF-8 Plain Text
Продолжительность                        : 1 ч. 54 м.
Битрейт                                  : 8 бит/сек
ElementCount                             : 101
Размер потока                            : 7,51 Кбайт (0%)
Заголовок                                : Forced
Язык                                     : Russian
Default                                  : Нет
Forced                                   : Нет

Текст #2
Идентификатор                            : 8
Формат                                   : UTF-8
Идентификатор кодека                     : S_TEXT/UTF8
Идентификатор кодека/Информация          : UTF-8 Plain Text
Продолжительность                        : 1 ч. 55 м.
Битрейт                                  : 79 бит/сек
ElementCount                             : 1221
Размер потока                            : 67,5 Кбайт (0%)
Заголовок                                : Full [от Enigma]
Язык                                     : Russian
Default                                  : Нет
Forced                                   : Нет

Текст #3
Идентификатор                            : 9
Формат                                   : UTF-8
Идентификатор кодека                     : S_TEXT/UTF8
Идентификатор кодека/Информация          : UTF-8 Plain Text
Продолжительность                        : 1 ч. 55 м.
Битрейт                                  : 69 бит/сек
ElementCount                             : 1188
Размер потока                            : 58,8 Кбайт (0%)
Заголовок                                : Full [от Mallorn]
Язык                                     : Russian
Default                                  : Нет
Forced                                   : Нет

Текст #4
Идентификатор                            : 10
Формат                                   : UTF-8
Идентификатор кодека                     : S_TEXT/UTF8
Идентификатор кодека/Информация          : UTF-8 Plain Text
Продолжительность                        : 1 ч. 55 м.
Битрейт                                  : 86 бит/сек
ElementCount                             : 1189
Размер потока                            : 73,6 Кбайт (0%)
Заголовок                                : Full
Язык                                     : English
Default                                  : Нет
Forced                                   : Нет

Меню
00:00:00.000                             : :Глава 01
00:12:00.000                             : :Глава 02
00:24:00.000                             : :Глава 03
00:36:00.000                             : :Глава 04
00:48:00.000                             : :Глава 05
01:00:00.000                             : :Глава 06
01:12:00.000                             : :Глава 07
01:24:00.000                             : :Глава 08
01:36:00.000                             : :Глава 09
01:48:00.000                             : :Глава 10



[+] Осторожно - спойлер!
Единственное непредсказуемое было это отношения с соседкой, тут хорошо получилось передать то что творится в голове у психа. А так, фильм про психа, про всё гавно вокруг (тут только можно новости в интернете почитать и понять куда мы катимся, а не выводы из таких фильмов делать). А то получается слепым котикам глазки открыли какой бывает мир аяяяй. Детский сад.



[+] Итак
Во-первых, кино НЕ развлекательное. Второе: перед нами социальная драма, аллегорически показанная на примере персональной драмы. По степени насыщенности социально-психологическим подтекстом сравнить можно с "Преступление и наказание" Достоевского. Только в отличии от ГГ романа Раскольникова, нынешний персонаж Артур (Джокер) гораздо более жесток. Он не мучается совестью, будучи абсолютно уверенным в своей правоте. Третье, не будем забывать, что действие происходит в Готэме, что значит - темный/мрачный город. Этим самым зрителям как бы говорится, что выбирать нужно будет не между добром и злом, как в обычном мире, а между плохим и очень плохим. В Готэме, в отличии от обычного мира, социальные проблемы гипертрофированны т.е. выраженны очень рельефно. И ГГ Артур (Джокер) является коренным жителем Готэма.

Далее, на всем протяжении повествования, для лучшего понимания социологии происходящего, режиссером показанны некие фрагменты соответствующие внутренней трансформации ГГ. Его рутинный, усталый подьем по лестнице или после увольнения, когда он наоборот, спускается по темной коридорной лестницы, пинком открывает дверь, перед ним возникает свет, словно он входит в другой мир. Или его смех, который более похож на истерический плач. Тем самым режиссер дает понять, что те мелкие радости, которые испытывает низшая часть расслоившегося общества, на самом деле радостью не является, коль сама их жизнь лишена какого-либо смысла. Более того, угнетения этой части общества настолько велики, что клоунский персонаж, совершивший жестокое убийство трех клерков, на время становится их героем и кумиром (т.е. эта часть общества настолько бесправна, третируема и презираема, что по большому счету им все равно кто он: бог, дьявол, черт, ангел, король, шут. Он посмел восстать против существующей иерархической системы и только поэтому он становится их символом сопротивления).

Последней каплей служит факт, что самый близкий ему человек - собственная мать - всю жизнь его обманывала. И девушка из его иллюзий в реале к нему совершенна безразлична. Его психика не способна справиться с подобным диссонансом, происходит необратимая деформация сознания. Единственным смыслом, радостью и отдушиной для него становиться преступление. Он искренне радуется и веселится видя творящийся вокруг беспорядки и хаос.

Главный вопрос: является ли происходящее социальной революцией? Режиссер нам четко дает понять, что нет. Отсутствуют политические требования, консолидация, организованность, сплоченность. Это просто беспорядки. Перерастут ли они во что-то большее? Неизвестно.

Последний вопрос, который неизбежно возникнет у думающего зрителя: оправдывает ли режиссер своего ГГ и является ли он злодеем? В финале нам показывают, что ГГ идет по светлому коридору, но за ним тянется кровавый след. Это значит, что однозначного ответа на этот вопрос автор сюжета не дает, оставляя на суд зрителя.
Что касается ГГ, он достиг своей цели, устроил собственное шоу и веселит толпу (в этом смысле сценический образ завершен).



Скриншоты:
[+] Всего файлов в раздаче - 1:
Joker.WEBRip.1080p_zh.mkv11.74 GB

Показать еще раздачи по запросу джокер:
2020-01-21 U Джокер / Joker (2019) BDRip 720p от k.e.n & MegaPeer | D, P, A | Лицензия 5.59 GB ↑ 3 ↓ 44
2020-01-13 U Джокер / Joker (2019) BDRip от HQ-ViDEO | D | Лицензия 2.18 GB ↑ 38 ↓ 24
2020-01-08 U Джокер / Joker (2019) BDRip-AVC | Лицензия 748.91 MB ↑ 38 ↓ 5
2019-12-31 U Джокер / Joker (2019) BDRip 720p | D, P, A 5.13 GB ↑ 34 ↓ 10
2019-12-29 U Джокер / Joker (2019) BDRip 720p от Scarabey | Лицензия 4.75 GB ↑ 186 ↓ 26
2019-12-28 U Джокер / Joker (2019) BDRip-AVC от Generalfilm | Лицензия 1.64 GB ↑ 249 ↓ 76
2019-12-28 U Джокер / Joker (2019) HDRip от Scarabey | Лицензия 1.44 GB ↑ 248 ↓ 16

Отзывы
Зарегистрируйтесь чтобы добавить комментарий.
Обратная связь
Copyleft ©