↑↓torrent.by
Поиск
Логин: Регистрация
Пароль: Восстановить пароль

Первобытный / Primal (2019) WEB-DLRip | L

Скачать pervobytnyy-primal-2019-web-dlrip-l.torrent
U Магнитная ссылка Размер: 1.46 GB Раздают: 277 Качают: 49 Добавлен: 2019-11-22 06:36:42
Первобытный / Primal (2019) WEB-DLRip | L

Первобытный / Primal

Страна: США
Производство: Artem Entertainment, Daniel Grodnik Productions, Imprint Entertainment, Wonderfilm Media
Год выпуска: 2019
Жанр:  боевик
Продолжительность: 01:36:49

Режиссер: Ник Пауэлл
Автор сценария: Ричард Ледер
В ролях: Николас Кейдж, Фамке Янссен, Кевин Дюран, ЛаМоника Гаррет, Майкл Империоли, Том Уолкер, Рей Эрнандес, Джон Льюис, Джейм Айризэрри

Описание: Охотник и зверолов Фрэнк Уолш промышляет редкими видами животных. Недавно он поймал в дождевых лесах Бразилии белого ягуара и теперь рассчитывает продать его в зоопарк за кругленькую сумму. Но кроме Фрэнка и его живого груза борту корабля, следующего в Америку, оказывается опасный убийца, который должен предстать перед судом, и которого по медицинским показаниям нельзя перевозить на самолёте. В пути преступник сбегает и выпускает из клеток не только обезьян и ядовитых змей, но и агрессивного ягуара...

Перевод: Любительский (многоголосый, закадровый) | AlphaProject
Субтитры: нет

Качество: WEB-DLRip
Формат: AVI
Видео кодек: XviD
Аудио кодек: АС3
Видео: 720x304 (2.35:1), 23.976 fps, XviD build 67 ~1 760 kbps avg
Аудио №1: 48.0 kHz, AC3 Dolby Digital, 2/0 (L,R) ch, ~192 kbps | RUS
Аудио №2: 48.0 kHz, AC3 Dolby Digital, 2/0 (L,R) ch, ~192 kbps | ENG

Дата премьеры (мир): 5 ноября 2019

Релиз от: Dalemake


[+] Media Info
General
Полное имя                               : Pervobytnyi_2019_WEB-DLRip_MVO_by_Dalemake.avi
Формат                                   : AVI
Формат/Информация                        : Audio Video Interleave
Размер файла                             : 1,46 Гбайт
Продолжительность                        : 1 ч. 36 м.
Общий поток                              : 2158 Кбит/сек
Программа кодирования                    : VirtualDubMod 1.5.10.3 | www.virtualdub-fr.org || (build 2550/release)
Библиотека кодирования                   : VirtualDubMod build 2550/release

Видео
Идентификатор                            : 0
Формат                                   : MPEG-4 Visual
Профиль формата                          : Advanced Simple@L5
Параметр BVOP формата                    : 1
Параметр QPel формата                    : Нет
Параметр GMC формата                     : Без точки перехода
Параметр матрицы формата                 : Выборочная
Идентификатор кодека                     : XVID
Идентификатор кодека/Подсказка           : XviD
Продолжительность                        : 1 ч. 36 м.
Битрейт                                  : 1760 Кбит/сек
Ширина                                   : 720 пикселей
Высота                                   : 304 пикселя
Соотношение сторон                       : 2,35:1
Частота кадров                           : 23,976 кадра/сек
Цветовое пространство                    : YUV
Субдискретизация насыщенности            : 4:2:0
Битовая глубина                          : 8 бит
Тип развёртки                            : Прогрессивная
Метод сжатия                             : С потерями
Бит/(Пиксели*Кадры)                      : 0.335
Размер потока                            : 1,19 Гбайт (82%)
Библиотека кодирования                   : XviD 67

Аудио #1
Идентификатор                            : 1
Формат                                   : AC-3
Формат/Информация                        : Audio Coding 3
Расширение режима                        : CM (complete main)
Параметр Endianness формата              : Big
Идентификатор кодека                     : 2000
Продолжительность                        : 1 ч. 36 м.
Вид битрейта                             : Постоянный
Битрейт                                  : 192 Кбит/сек
Каналы                                   : 2 канала
Расположение каналов                     : Front: L R
Частота                                  : 48,0 КГц
Битовая глубина                          : 16 бит
Метод сжатия                             : С потерями
Размер потока                            : 133 Мбайт (9%)
Выравнивание                             : Разделение по промежуткам
Продолжительность промежутка             : 42  мс. (1,00 видеокадр)
Время предзагрузки промежутка            : 500  мс.

Аудио #2
Идентификатор                            : 2
Формат                                   : AC-3
Формат/Информация                        : Audio Coding 3
Расширение режима                        : CM (complete main)
Параметр Endianness формата              : Big
Идентификатор кодека                     : 2000
Продолжительность                        : 1 ч. 36 м.
Вид битрейта                             : Постоянный
Битрейт                                  : 192 Кбит/сек
Каналы                                   : 2 канала
Расположение каналов                     : Front: L R
Частота                                  : 48,0 КГц
Битовая глубина                          : 16 бит
Метод сжатия                             : С потерями
Размер потока                            : 133 Мбайт (9%)
Выравнивание                             : Разделение по промежуткам
Продолжительность промежутка             : 42  мс. (1,00 видеокадр)
Время предзагрузки промежутка            : 500  мс.



Скриншоты:
[+] Всего файлов в раздаче - 1:
Pervobytnyi_2019_WEB-DLRip_MVO_by_Dalemake.avi1.46 GB

Похожие раздачи по запросу - первобытный:
2019-12-24 U Первобытный / Primal (2019) HDRip от Portablius | L 2К745.42 MB ↑ 68 ↓ 23
2019-12-23 U Первобытный / Primal (2019) BDRip 1080p | L 6.68 GB ↑ 135 ↓ 144
2019-11-22 U Первобытный / Primal (2019) WEBRip 720p | L 2.79 GB ↑ 102 ↓ 71
2019-11-22 U Первобытный / Primal (2019) WEB-DLRip | L 748.96 MB ↑ 253 ↓ 59
2019-11-22 U Первобытный / Primal (2019) WEB-DL 1080p | L 5.69 GB ↑ 134 ↓ 109
2019-10-20 U Первобытный / Primal [S01] (2019) WEB-DL 1080p 4.11 GB ↑ 432 ↓ 238

Отзывы
Зарегистрируйтесь чтобы добавить комментарий.
Обратная связь
Copyleft ©