↑↓torrent.by
Поиск
Логин: Регистрация
Пароль: Восстановить пароль

Девушки бывают разные (2019) WEB-DL 1080p | iTunes

Скачать devushki-byvayut-raznye-2019-web-dl-1080p-itunes.torrent
U Магнитная ссылка Размер: 3.42 GB Раздают: 168 Качают: 125 Добавлен: 2019-11-22 10:45:15
Девушки бывают разные (2019) WEB-DL 1080p | iTunes

Название: Девушки бывают разные
Год выхода: 2019
Жанр: комедия, драма
Режиссер: Сарик Андреасян
В ролях: Дмитрий Нагиев, Роман Попов, Артем Сучков, Дмитрий Власкин, Владимир Яглыч, Зоя Бербер, Елизавета Моряк, Алена Чехова

О фильме:
Это история о трёх друзьях, решивших покататься на серфе в Мексике. Все как полагается: океан, девушки и золотой песок. История не предвещает неожиданностей. Но не для наших героев, которые первым делом как следует отметили свой приезд. С трудом проснувшись наутро, парни обнаруживают себя посреди пляжа, они в замешательстве — не помнят, что же произошло накануне. Но вскоре появляются люди, которые освежают им память: оказывается, прошлой ночью парни страшно навредили международному криминальному авторитету Хуану, который по какой-то причине хочет их убить. Скрываясь от преследования, без денег и документов, они находят спасение — переодеваются в девушек и участвуют в женском турнире по сёрфингу. Победа поможет выиграть сто тысяч долларов и выбраться из страны. Но они еще не знают, что их неидеальному плану помешают любовь, секретные спецслужбы, мафия и даже бойцовые петухи.

 
Страна: Россия
Студия: Fetisoff Illusion
Продолжительность: 01:29:15
Перевод: Русский | iTunes

Файл
Кодек: MKV
Качество: WEB-DL 1080p
Видео: MPEG4 AVC Video, H264, 2.40:1, 1920x800, 24 fps, 5097 kbps
Звук: Russian (AC3, 6 ch, 384 kbps, 16 bits, 48.0 KHz) - оригинал
Субтитры: Отсутствуют


[+] MI
MediaInfo
General
Unique ID : 221014064901784692167770124994939612657 (0xA645C2B4E144E0409FAEA6AFD6C26DF1)
Complete name : D:Devushki.byvayut.raznye.2019.WEB-DL.(1080p).Getty.mkv
Format : Matroska
Format version : Version 4 / Version 2
File size : 3.42 GiB
Duration : 1 h 29 min
Overall bit rate : 5 483 kb/s
Movie name : Devushki.byvayut.raznye.2019.WEB-DL.(1080p).Getty
Encoded date : UTC 2019-11-20 23:12:57
Writing application : mkvmerge v7.8.0 ('River Man') 32bit built on Mar 27 2015 16:18:02
Writing library : libebml v1.3.1 + libmatroska v1.4.2

Video
ID : 1
Format : AVC
Format/Info : Advanced Video Codec
Format profile : High@L4
Format settings : CABAC / 4 Ref Frames
Format settings, CABAC : Yes
Format settings, ReFrames : 4 frames
Format settings, GOP : M=7, N=48
Codec ID : V_MPEG4/ISO/AVC
Duration : 1 h 29 min
Bit rate : 5 097 kb/s
Width : 1 920 pixels
Height : 800 pixels
Display aspect ratio : 2.40:1
Frame rate mode : Constant
Frame rate : 24.000 FPS
Color space : YUV
Chroma subsampling : 4:2:0
Bit depth : 8 bits
Scan type : Progressive
Bits/(Pixel*Frame) : 0.138
Stream size : 3.18 GiB (93%)
Default : Yes
Forced : No

Audio
ID : 2
Format : AC-3
Format/Info : Audio Coding 3
Codec ID : A_AC3
Duration : 1 h 29 min
Bit rate mode : Constant
Bit rate : 384 kb/s
Channel(s) : 6 channels
Channel positions : Front: L C R, Side: L R, LFE
Sampling rate : 48.0 kHz
Frame rate : 31.250 FPS (1536 SPF)
Bit depth : 16 bits
Compression mode : Lossy
Stream size : 245 MiB (7%)
Service kind : Complete Main
Default : Yes
Forced : No



Скриншоты:
[+] Всего файлов в раздаче - 1:
Devushki.byvayut.raznye.2019.WEB-DL.(1080p).Getty.mkv3.42 GB

Показать еще раздачи по запросу девушки:
2020-01-16 U Портрет девушки в огне / Portrait de la jeune fille en feu (2019) WEB-DL 1080p | iTunes 4.40 GB ↑ 119 ↓ 33
2019-11-23 U Девушки бывают разные (2019) WEB-DLRip от Portablius | iTunes 1.45 GB ↑ 399 ↓ 91
2019-11-22 U Девушки бывают разные (2019) WEB-DLRip-AVC от Files-x | iTunes 1.46 GB ↑ 230 ↓ 89
2019-11-21 U Девушки бывают разные (2019) WEB-DLRip 744.73 MB ↑ 1999 ↓ 287
2019-09-23 U Обои для рабочего стола - Девушки [1600x1200 - 2560x1440] [285шт.] (2019) JPEG 187.29 MB ↑ 50 ↓ 36
2019-09-19 U Обои для рабочего стола - Девушки [720x384 — 5779x3731] [206шт.] (2019) JPG, PNG от Yuridar 136.18 MB ↑ 16 ↓ 10
2018-06-08 U Полиция нравов: Девушки из Сан-Тропе / Police des moeurs: Les filles de Saint Tropez (1987) DVDRip | L1 1.46 GB ↑ 1072 ↓ 73

Отзывы
Зарегистрируйтесь чтобы добавить комментарий.
Обратная связь
Copyleft ©