↑↓torrent.by
Поиск
Логин: Регистрация
Пароль: Восстановить пароль

Девушки бывают разные (2019) WEB-DLRip-AVC от Files-x | iTunes

Скачать devushki-byvayut-raznye-2019-web-dlrip-avc-ot-files-x-itunes.torrent
U Магнитная ссылка Размер: 1.46 GB Раздают: 230 Качают: 89 Добавлен: 2019-11-22 15:34:32
Девушки бывают разные (2019) WEB-DLRip-AVC от Files-x | iTunes

Название: Девушки бывают разные
Год выхода: 2019
Жанр: Комедия, приключения
Режиссер: Сарик Андреасян
В ролях: Дмитрий Нагиев, Владимир Яглыч, Роман Попов, Зоя Бербер, Сергей Белоголовцев, Алёна Чехова, Дмитрий Власкин, Артём Сучков, Елизавета Моряк

О фильме: Это история о трёх друзьях, решивших покататься на серфе в Мексике. Все как полагается: океан, девушки и золотой песок. История не предвещает неожиданностей. Но не для наших героев, которые первым делом как следует отметили свой приезд. С трудом проснувшись наутро, парни обнаруживают себя посреди пляжа, они в замешательстве — не помнят, что же произошло накануне. Но вскоре появляются люди, которые освежают им память: оказывается, прошлой ночью парни страшно навредили международному криминальному авторитету Хуану, который по какой-то причине хочет их убить. Скрываясь от преследования, без денег и документов, они находят спасение — переодеваются в девушек и участвуют в женском турнире по сёрфингу. Победа поможет выиграть сто тысяч долларов и выбраться из страны. Но они еще не знают, что их неидеальному плану помешают любовь, секретные спецслужбы, мафия и даже бойцовые петухи.

Страна: Россия
Студия: Продюсерская компания "Фетисов Иллюзион"
Продолжительность: 01:29:14
Перевод: Не требуется

Файл
Кодек: h.264
Качество: WEB-DLRip-AVC
Видео: MPEG-4 AVC, ~ 1952 Кбит/с, 1024x424, 24 кадр/с
Аудио: AC3, 6 ch, 384 Кбит/с
Язык: Русский [iTunes]
Cубтитры: нет

Релиз:


[+] MediaInfo

General
Unique ID                                : 172840092122789943009528423839669001367 (0x8207CA787CCB1E548724AC056D359C97)
Complete name                            : F:Devushki.byvayut.raznye.(2019).WEB-DLRip.(AVC).by.Серый1779.Files-x.mkv
Format                                   : Matroska
Format version                           : Version 2
File size                                : 1.46 GiB
Duration                                 : 1 h 29 min
Overall bit rate                         : 2 336 kb/s
Encoded date                             : UTC 2019-11-22 09:58:21
Writing application                      : mkvmerge v7.8.0 ('River Man') 32bit built on Apr  3 2015 12:11:22
Writing library                          : libebml v1.3.1 + libmatroska v1.4.2

Video
ID                                       : 1
Format                                   : AVC
Format/Info                              : Advanced Video Codec
Format profile                           : High@L4.1
Format settings                          : CABAC / 10 Ref Frames
Format settings, CABAC                   : Yes
Format settings, RefFrames               : 10 frames
Codec ID                                 : V_MPEG4/ISO/AVC
Duration                                 : 1 h 29 min
Bit rate                                 : 1 952 kb/s
Width                                    : 1 024 pixels
Height                                   : 424 pixels
Display aspect ratio                     : 2.40:1
Frame rate mode                          : Constant
Frame rate                               : 24.000 FPS
Color space                              : YUV
Chroma subsampling                       : 4:2:0
Bit depth                                : 8 bits
Scan type                                : Progressive
Bits/(Pixel*Frame)                       : 0.187
Stream size                              : 1.19 GiB (82%)
Writing library                          : x264 core 146 r2538 121396c
Encoding settings                        : cabac=1 / ref=10 / deblock=1:-2:-1 / analyse=0x3:0x133 / me=umh / subme=11 / psy=1 / psy_rd=1.00:0.08 / mixed_ref=1 / me_range=32 / chroma_me=1 / trellis=2 / 8x8dct=1 / cqm=0 / deadzone=21,11 / fast_pskip=0 / chroma_qp_offset=-3 / threads=18 / lookahead_threads=3 / sliced_threads=0 / nr=0 / decimate=1 / interlaced=0 / bluray_compat=0 / constrained_intra=0 / bframes=11 / b_pyramid=2 / b_adapt=2 / b_bias=0 / direct=1 / weightb=1 / open_gop=0 / weightp=2 / keyint=250 / keyint_min=23 / scenecut=40 / intra_refresh=0 / rc=2pass / mbtree=0 / bitrate=1952 / ratetol=1.0 / qcomp=0.60 / qpmin=0 / qpmax=69 / qpstep=4 / cplxblur=20.0 / qblur=0.5 / ip_ratio=1.40 / pb_ratio=1.30 / aq=2:1.00
Default                                  : Yes
Forced                                   : No
Color range                              : Limited
Color primaries                          : BT.709
Transfer characteristics                 : BT.709
Matrix coefficients                      : BT.709

Audio
ID                                       : 2
Format                                   : AC-3
Format/Info                              : Audio Coding 3
Format settings, Endianness              : Big
Codec ID                                 : A_AC3
Duration                                 : 1 h 29 min
Bit rate mode                            : Constant
Bit rate                                 : 384 kb/s
Channel(s)                               : 6 channels
Channel positions                        : Front: L C R, Side: L R, LFE
Sampling rate                            : 48.0 kHz
Frame rate                               : 31.250 FPS (1536 SPF)
Bit depth                                : 16 bits
Compression mode                         : Lossy
Stream size                              : 245 MiB (16%)
Service kind                             : Complete Main
Default                                  : Yes
Forced                                   : No




Скриншоты:
[+] Всего файлов в раздаче - 1:
Devushki.byvayut.raznye.(2019).WEB-DLRip.(AVC).by.Серый1779.Files-x.mkv1.46 GB

Показать еще раздачи по запросу девушки:
2020-01-16 U Портрет девушки в огне / Portrait de la jeune fille en feu (2019) WEB-DL 1080p | iTunes 4.40 GB ↑ 118 ↓ 33
2019-11-23 U Девушки бывают разные (2019) WEB-DLRip от Portablius | iTunes 1.45 GB ↑ 399 ↓ 91
2019-11-22 U Девушки бывают разные (2019) WEB-DL 1080p | iTunes 3.42 GB ↑ 168 ↓ 125
2019-11-21 U Девушки бывают разные (2019) WEB-DLRip 744.73 MB ↑ 1999 ↓ 287
2019-09-23 U Обои для рабочего стола - Девушки [1600x1200 - 2560x1440] [285шт.] (2019) JPEG 187.29 MB ↑ 50 ↓ 36
2019-09-19 U Обои для рабочего стола - Девушки [720x384 — 5779x3731] [206шт.] (2019) JPG, PNG от Yuridar 136.18 MB ↑ 16 ↓ 10
2018-06-08 U Полиция нравов: Девушки из Сан-Тропе / Police des moeurs: Les filles de Saint Tropez (1987) DVDRip | L1 1.46 GB ↑ 1072 ↓ 73

Отзывы
Зарегистрируйтесь чтобы добавить комментарий.
Обратная связь
Copyleft ©