↑↓torrent.by
Поиск
Логин: Регистрация
Пароль: Восстановить пароль

Первобытный / Primal (2019) WEB-DLRip | L

Скачать pervobytnyy-primal-2019-web-dlrip-l.torrent
U Магнитная ссылка Размер: 748.96 MB Раздают: 253 Качают: 59 Добавлен: 2019-11-22 15:34:37
Первобытный / Primal (2019) WEB-DLRip | L

Название: Первобытный
Оригинальное название: Primal
Страна: США
Производство: Artem Entertainment, Daniel Grodnik Productions, Imprint Entertainment, Wonderfilm Media
Год выпуска: 2019
Жанр:  боевик
Продолжительность: 01:36:49

Режиссер: Ник Пауэлл
Автор сценария: Ричард Ледер
В ролях: Николас Кейдж, Фамке Янссен, Кевин Дюран, ЛаМоника Гаррет, Майкл Империоли, Том Уолкер, Рей Эрнандес, Джон Льюис, Джейм Айризэрри

Описание: Охотник и зверолов Фрэнк Уолш промышляет редкими видами животных. Недавно он поймал в дождевых лесах Бразилии белого ягуара и теперь рассчитывает продать его в зоопарк за кругленькую сумму. Но кроме Фрэнка и его живого груза борту корабля, следующего в Америку, оказывается опасный убийца, который должен предстать перед судом, и которого по медицинским показаниям нельзя перевозить на самолёте. В пути преступник сбегает и выпускает из клеток не только обезьян и ядовитых змей, но и агрессивного ягуара...

Перевод: Любительский (многоголосый, закадровый) | AlphaProject
Субтитры: нет

Качество: WEB-DLRip
Формат: AVI
Видео: 720x304 (2.37:1), 23.976 fps, XviD build 73 ~944 kbps avg, 0.18 bit/pixel
Аудио: 48 kHz, MPEG Layer 3, 2 ch, ~128.00 kbps avg

Дата премьеры (мир): 5 ноября 2019


[+] Media Info
Общее
Полное имя: C:Pervobytnyi_2019_WEB-DLRip.740.mb.avi
Формат: AVI
Формат/Информация: Audio Video Interleave
Размер файла: 749 Мбайт
Продолжительность: 1 ч. 36 м.
Общий поток: 1081 Кбит/сек
Программа кодирования: VirtualDubMod 1.5.10.3 | (build 2550/release)
Библиотека кодирования: VirtualDubMod build 2550/release

Видео
Идентификатор: 0
Формат: MPEG-4 Visual
Профиль формата: Advanced Simple@L5
Параметр BVOP формата: 1
Параметр QPel формата: Нет
Параметр GMC формата: Без точки перехода
Параметр матрицы формата: Default (MPEG)
Идентификатор кодека: XVID
Идентификатор кодека/Подсказка: XviD
Продолжительность: 1 ч. 36 м.
Битрейт: 944 Кбит/сек
Ширина: 720 пикселей
Высота: 304 пикселя
Соотношение сторон: 2,35:1
Частота кадров: 23,976 кадра/сек
Цветовое пространство: YUV
Субдискретизация насыщенности: 4:2:0
Битовая глубина: 8 бит
Тип развёртки: Прогрессивная
Метод сжатия: С потерями
Бит/(Пиксели*Кадры): 0.180
Размер потока: 654 Мбайт (87%)
Библиотека кодирования: XviD 73

Аудио
Идентификатор: 1
Формат: MPEG Audio
Версия формата: Version 1
Профиль формата: Layer 3
Идентификатор кодека: 55
Идентификатор кодека/Подсказка: MP3
Продолжительность: 1 ч. 36 м.
Вид битрейта: Постоянный
Битрейт: 128 Кбит/сек
Каналы: 2 канала
Частота: 48,0 КГц
Метод сжатия: С потерями
Размер потока: 88,6 Мбайт (12%)
Выравнивание: Соединение по промежуткам
Продолжительность промежутка: 42 мс. (1,00 видеокадр)
Время предзагрузки промежутка: 504 мс.
Библиотека кодирования: LAME3.99r
Настройки программы: -m s -V 4 -q 2 -lowpass 17 -b 128




Скриншоты:
[+] Всего файлов в раздаче - 1:
Pervobytnyi_2019_WEB-DLRip.740.mb.avi748.96 MB

Похожие раздачи по запросу - первобытный:
2019-12-24 U Первобытный / Primal (2019) HDRip от Portablius | L 2К745.42 MB ↑ 69 ↓ 23
2019-12-23 U Первобытный / Primal (2019) BDRip 1080p | L 6.68 GB ↑ 135 ↓ 144
2019-11-22 U Первобытный / Primal (2019) WEBRip 720p | L 2.79 GB ↑ 102 ↓ 71
2019-11-22 U Первобытный / Primal (2019) WEB-DL 1080p | L 5.69 GB ↑ 134 ↓ 109
2019-11-22 U Первобытный / Primal (2019) WEB-DLRip | L 1.46 GB ↑ 278 ↓ 49
2019-10-20 U Первобытный / Primal [S01] (2019) WEB-DL 1080p 4.11 GB ↑ 432 ↓ 238

Отзывы
Зарегистрируйтесь чтобы добавить комментарий.
Обратная связь
Copyleft ©