↑↓torrent.by
Поиск
Логин: Регистрация
Пароль: Восстановить пароль

Первобытный / Primal (2019) WEBRip 720p | L

Скачать pervobytnyy-primal-2019-webrip-720p-l.torrent
U Магнитная ссылка Размер: 2.79 GB Раздают: 146 Качают: 71 Добавлен: 2019-11-22 15:34:41
Первобытный / Primal (2019) WEBRip 720p | L

Название: Первобытный
Оригинальное название: Primal
Год выхода: 2019
Жанр: Боевик
Режиссер: Ник Пауэлл
В ролях: Николас Кейдж, Фамке Янссен, Кевин Дюран, ЛаМоника Гаррет, Майкл Империоли, Том Уолкер, Рей Эрнандес, Джон Льюис, Браулио Кастильо мл., Дрэйк Шеннон, Джозеф Оливейра, Брайан Тестер, Пабло Туфино, Себастьян Васкес, Джереми Насарио

О фильме:
Охотник и зверолов Фрэнк Уолш промышляет редкими видами животных. Недавно он поймал в дождевых лесах Бразилии белого ягуара и теперь рассчитывает продать его в зоопарк за кругленькую сумму. Но кроме Фрэнка и его живого груза борту корабля, следующего в Америку, оказывается опасный убийца, который должен предстать перед судом, и которого по медицинским показаниям нельзя перевозить на самолёте. В пути преступник сбегает и выпускает из клеток не только обезьян и ядовитых змей, но и агрессивного ягуара...

Страна: США
Студия: Daniel Grodnik Productions, The Wonderfilm Media Corporation, Imprint Entertainment
Продолжительность: 01:36:49
Перевод: Любительский многоголосый | AlphaProject

Файл
Кодек: AVC
Качество: WEBRip 720p | AMZN
Видео: MPEG-4 AVC, 3294 Kбит/с, 1280x544, 23.976 кадр/с
Звук: ► Без Рекламы!
Аудио #1: Русский (АС3, 2ch, 192 Кбит/с, 48.0 KHz) Любительский (многоголосый, закадровый) AlphaProject
Аудио #2: Английский (E-АС3, 6ch, 640 Кбит/с, 48.0 KHz)
Субтитры: Aнглийские
Трейлер




[+] MediaInfo
Источник: Primal.2019.720p.AMZN.WEBRip.DDP5.1.x264-NTG
General
Unique ID                      : 192911833163907870991891533725254657126 (0x912177B56680CAA58B5D4D9C09F1A466)
Complete name                  : Primal.2019.AMZN.WEBRip.720p.mkv
Format                         : Matroska
Format version                 : Version 4
File size                      : 2.79 GiB
Duration                       : 1 h 36 min
Overall bit rate               : 4 129 kb/s
Encoded date                   : UTC 2019-11-22 10:50:13
Writing application            : mkvmerge v7.1.0 ('Good Love') 64bit built on Jul 27 2014 13:06:55
Writing library                : libebml v1.3.0 + libmatroska v1.4.1

Video
ID                             : 1
Format                         : AVC
Format/Info                    : Advanced Video Codec
Format profile                 : High@L3.1
Format settings                : CABAC / 4 Ref Frames
Format settings, CABAC         : Yes
Format settings, Reference fra : 4 frames
Codec ID                       : V_MPEG4/ISO/AVC
Duration                       : 1 h 36 min
Bit rate mode                  : Constant
Bit rate                       : 3 294 kb/s
Nominal bit rate               : 6 000 kb/s
Width                          : 1 280 pixels
Height                         : 544 pixels
Display aspect ratio           : 2.35:1
Original display aspect ratio  : 2.35:1
Frame rate mode                : Constant
Frame rate                     : 23.976 (24000/1001) FPS
Color space                    : YUV
Chroma subsampling             : 4:2:0
Bit depth                      : 8 bits
Scan type                      : Progressive
Bits/(Pixel*Frame)             : 0.197
Stream size                    : 2.23 GiB (80%)
Language                       : English
Default                        : Yes
Forced                         : No
Color range                    : Limited
Color primaries                : BT.709
Transfer characteristics       : BT.709
Matrix coefficients            : BT.709

Audio #1
ID                             : 2
Format                         : AC-3
Format/Info                    : Audio Coding 3
Commercial name                : Dolby Digital
Codec ID                       : A_AC3
Duration                       : 1 h 36 min
Bit rate mode                  : Constant
Bit rate                       : 192 kb/s
Channel(s)                     : 2 channels
Channel layout                 : L R
Sampling rate                  : 48.0 kHz
Frame rate                     : 31.250 FPS (1536 SPF)
Compression mode               : Lossy
Stream size                    : 133 MiB (5%)
Language                       : Russian
Service kind                   : Complete Main
Default                        : Yes
Forced                         : No

Audio #2
ID                             : 3
Format                         : E-AC-3
Format/Info                    : Enhanced AC-3
Commercial name                : Dolby Digital Plus
Codec ID                       : A_EAC3
Duration                       : 1 h 36 min
Bit rate mode                  : Constant
Bit rate                       : 640 kb/s
Channel(s)                     : 6 channels
Channel layout                 : L R C LFE Ls Rs
Sampling rate                  : 48.0 kHz
Frame rate                     : 31.250 FPS (1536 SPF)
Compression mode               : Lossy
Stream size                    : 443 MiB (16%)
Language                       : English
Service kind                   : Complete Main
Default                        : No
Forced                         : No

Text #1
ID                             : 4
Format                         : UTF-8
Codec ID                       : S_TEXT/UTF8
Codec ID/Info                  : UTF-8 Plain Text
Duration                       : 1 h 29 min
Bit rate                       : 50 b/s
Count of elements              : 1191
Stream size                    : 32.7 KiB (0%)
Language                       : English
Default                        : No
Forced                         : No

Text #2
ID                             : 5
Format                         : UTF-8
Codec ID                       : S_TEXT/UTF8
Codec ID/Info                  : UTF-8 Plain Text
Duration                       : 1 h 31 min
Bit rate                       : 58 b/s
Count of elements              : 1407
Stream size                    : 39.0 KiB (0%)
Title                          : SDH
Language                       : English
Default                        : No
Forced                         : No



Скриншоты:
[+] Всего файлов в раздаче - 1:
Primal.2019.AMZN.WEBRip.720p.mkv2.79 GB

Похожие раздачи по запросу - первобытный:
2019-11-22 U Первобытный / Primal (2019) WEB-DLRip | L 1.46 GB ↑ 423 ↓ 50

Отзывы
Зарегистрируйтесь чтобы добавить комментарий.
Загрузите программу
  uTorrent.exe
Обратная связь
Copyleft ©