↑↓torrent.by
Поиск
Логин: Регистрация
Пароль: Восстановить пароль

После свадьбы / After the Wedding (2019) BDRip-AVC от OlLanDGroup | iTunes

Скачать posle-svadby-after-the-wedding-2019-bdrip-avc-ot-ollandgroup-itunes.torrent
U Магнитная ссылка Размер: 1.70 GB Раздают: 65 Качают: 12 Добавлен: 2019-11-23 11:57:32
После свадьбы / After the Wedding (2019) BDRip-AVC от OlLanDGroup | iTunes

После свадьбы / After the Wedding
«Every family has a secret»

Год выпуска: 2019
Страна: США
Производство: Ingenious Media, Joel B. Michaels Productions, Riverstone Pictures
Жанр:  Драма

Режиссёр: Барт Фрейндлих
В ролях: Мишель Уильямс, Джулианна Мур, Билли Крадап, Уилл Чейз, Дорис Маккарти, Эбби Куинн, Эжи Робертсон, Алекс Исола, Алекс Кранмер, Иса Дэвис, Сьюзэн Блэкуэлл

Перевод: Дублированный | [iTunes]
Субтитры: Русские (полные)
Реклама: Отсутствует

Описание: Изабель посвятила свою жизнь помощи другим. Она узнает, что женщина, возглавляющая многомиллионную корпорацию, готова пожертвовать ей огромную сумму. Их встреча в Нью-Йорке проходит успешно, но все меняется, когда Изабель случайно встречает ее мужа. Она еще не знает, что кто-то начал игру чужими судьбами, в которой правда окажется опаснее лжи…

Качество: BDRip-AVC | BDRemux | After.The.Wedding.2019.1080p.BluRay.REMUX.AVC.DTS-HD.MA.5.1-FGT
Продолжительность: 01:52:07

Формат: MKV
Видео кодек: MPEG-4 AVC
Аудио кодек: AC3
Видео: 1024x428 (2.40:1), 23,976 fps, x264 ~1 789 kbps avg, 0.170 bit/pixel
Аудио: 48 kHz, AC3 Dolby Digital, 3/2 (L,C,R,l,r) + LFE ch, ~384.00 kbps avg | RUS (iTunes)

Дата премьеры (мир): 24 января 2019
Дата премьеры (РФ): 26 сентября 2019, «Вольга»
Цифровой релиз: 12 ноября 2019, «Вольга»

Релиз:


[+] MediaInfo

Общее
Уникальный идентификатор                 : 4967950282537097596100977118423389177 (0x3BCCADC1C9205F6B7EC5440528193F9)
Полное имя                               : F:OlLanDGroupAfter.The.Wedding.2019.BDRip(AVC).OlLanDGroup.mkv
Формат                                   : Matroska
Версия формата                           : Version 4 / Version 2
Размер файла                             : 1,70 Гбайт
Продолжительность                        : 1 ч. 52 м.
Общий поток                              : 2172 Кбит/сек
Название фильма                          : After.the.Wedding.2019   #TorpedoUK#
Дата кодирования                         : UTC 2019-11-22 13:20:34
Программа кодирования                    : mkvmerge v29.0.0 ('Like It Or Not') 64-bit
Библиотека кодирования                   : libebml v1.3.6 + libmatroska v1.4.9

Видео
Идентификатор                            : 1
Формат                                   : AVC
Формат/Информация                        : Advanced Video Codec
Профиль формата                          : High@L4.1
Параметр CABAC формата                   : Да
Параметр ReFrames формата                : 10 кадров
Идентификатор кодека                     : V_MPEG4/ISO/AVC
Продолжительность                        : 1 ч. 52 м.
Битрейт                                  : 1789 Кбит/сек
Ширина                                   : 1024 пикселя
Высота                                   : 428 пикселей
Соотношение сторон                       : 2,40:1
Режим частоты кадров                     : Постоянный
Частота кадров                           : 23,976 (24000/1001) кадра/сек
Цветовое пространство                    : YUV
Субдискретизация насыщенности            : 4:2:0
Битовая глубина                          : 8 бит
Тип развёртки                            : Прогрессивная
Бит/(Пиксели*Кадры)                      : 0.170
Размер потока                            : 1,40 Гбайт (82%)
Библиотека кодирования                   : x264 core 146 r2538 121396c
Настройки программы                      : cabac=1 / ref=10 / deblock=1:-3:-3 / analyse=0x3:0x113 / me=umh / subme=11 / psy=1 / psy_rd=1.00:0.03 / mixed_ref=1 / me_range=48 / chroma_me=1 / trellis=2 / 8x8dct=1 / cqm=0 / deadzone=21,11 / fast_pskip=1 / chroma_qp_offset=-6 / threads=6 / lookahead_threads=1 / sliced_threads=0 / nr=0 / decimate=1 / interlaced=0 / bluray_compat=0 / constrained_intra=0 / bframes=11 / b_pyramid=2 / b_adapt=2 / b_bias=0 / direct=3 / weightb=1 / open_gop=0 / weightp=2 / keyint=240 / keyint_min=23 / scenecut=40 / intra_refresh=0 / rc_lookahead=40 / rc=2pass / mbtree=0 / bitrate=1789 / ratetol=1.0 / qcomp=0.60 / qpmin=0 / qpmax=69 / qpstep=4 / cplxblur=20.0 / qblur=0.5 / vbv_maxrate=50000 / vbv_bufsize=62500 / nal_hrd=none / filler=0 / ip_ratio=1.40 / pb_ratio=1.30 / aq=1:1.00
Язык                                     : English
Default                                  : Да
Forced                                   : Нет

Аудио
Идентификатор                            : 2
Формат                                   : AC-3
Формат/Информация                        : Audio Coding 3
Расширение режима                        : CM (complete main)
Параметр Endianness формата              : Big
Идентификатор кодека                     : A_AC3
Продолжительность                        : 1 ч. 51 м.
Вид битрейта                             : Постоянный
Битрейт                                  : 384 Кбит/сек
Каналы                                   : 6 каналов
Расположение каналов                     : Front: L C R, Side: L R, LFE
Частота                                  : 48,0 КГц
Частота кадров                           : 31,250 кадров/сек (1536 spf)
Битовая глубина                          : 16 бит
Метод сжатия                             : С потерями
Размер потока                            : 307 Мбайт (18%)
Заголовок                                : DUB [iTunes]
Язык                                     : Russian
Default                                  : Да
Forced                                   : Нет

Текст
Идентификатор                            : 3
Формат                                   : UTF-8
Идентификатор кодека                     : S_TEXT/UTF8
Идентификатор кодека/Информация          : UTF-8 Plain Text
Продолжительность                        : 1 ч. 45 м.
Битрейт                                  : 88 бит/сек
Count of elements                        : 1356
Размер потока                            : 68,9 Кбайт (0%)
Заголовок                                : Full
Язык                                     : Russian
Default                                  : Нет
Forced                                   : Нет

Меню
00:00:00.000                             : en:Chapter 01
00:08:05.026                             : en:Chapter 02
00:15:13.996                             : en:Chapter 03
00:22:06.992                             : en:Chapter 04
00:30:10.642                             : en:Chapter 05
00:38:53.581                             : en:Chapter 06
00:47:39.690                             : en:Chapter 07
00:53:23.074                             : en:Chapter 08
01:01:21.219                             : en:Chapter 09
01:03:27.011                             : en:Chapter 10
01:08:04.497                             : en:Chapter 11
01:13:56.056                             : en:Chapter 12
01:17:27.517                             : en:Chapter 13
01:23:40.306                             : en:Chapter 14
01:31:48.461                             : en:Chapter 15
01:38:51.967                             : en:Chapter 16



Скриншоты:
[+] Всего файлов в раздаче - 1:
After.The.Wedding.2019.BDRip(AVC).OlLanDGroup.mkv1.70 GB

Показать еще раздачи по запросу после:
2020-02-19 U После полуночи / After Midnight (2019) WEBRip 1080p | LakeFilms 1.44 GB ↑ 37 ↓ 10
2020-01-05 U Рожденный после смерти / Strange But True (2019) HDRip от Portablius | iTunes 744.93 MB ↑ 144 ↓ 42
2020-01-05 U Рожденный после смерти / Strange But True (2019) BDRip-AVC | iTunes 1К1.43 GB ↑ 214 ↓ 32
2020-01-05 U Рожденный после смерти / Strange But True (2019) BDRip 1080p | iTunes 7.32 GB ↑ 619 ↓ 358
2020-01-05 U Рожденный после смерти / Strange But True (2019) BDRip | iTunes 1.45 GB ↑ 936 ↓ 325
2019-12-29 U Разведчики. Война после войны [02х01-06 из 06] (2008) HDTVRip-AVC 3.89 GB ↑ 90 ↓ 16
2019-12-02 U Млечин Леонид - До и после смерти Сталина (2019) FB2 1.44 MB ↑ 144 ↓ 3

Отзывы
Зарегистрируйтесь чтобы добавить комментарий.
Обратная связь
Copyleft ©