↑↓Torrent.by
Поиск
Логин: Регистрация
Пароль: Восстановить пароль

КВН-2019. Встреча выпускников [23.11] (2019) HDTVRip от GeneralFilm

Скачать kvn-2019-vstrecha-vypusknikov-23-11-hdtvrip-ot-generalfilm.torrent
U Магнитная ссылка Размер: 1.91 GB Раздают: 137 Качают: 62 Добавлен: 2019-11-24 06:10:30
КВН-2019. Встреча выпускников [23.11] (2019) HDTVRip от GeneralFilm

Оригинальное название: КВН-2019. Встреча выпускников
Год выпуска: 2019
Жанр:  Юмор
Выпущено: Россия, АМИК, Первый канал
Ведущий: Александр Масляков

О фильме: На одной сцене встретятся команды, которые, уже закончив свою карьеру в КВН, остаются популярны и сегодня. Для кого-то это будет реванш, для кого-то — еще одна попытка доказать свое превосходство. Игра войдет в историю и запомнится как самая большая и теплая встреча с любимыми кавээнщиками. Ведь, как и в школе, встреча выпускников Клуба — это лишний повод увидеть старых и добрых друзей по кавээновской сцене.

Качество: HDTVRip
Видео: XviD, 1797 Кбит/с, 720х400, 25 кадр/с
Аудио: Русский (AC3, 2 ch, 192 Кбит/с)
Продолжительность: 02:16:37
Перевод: Не требуется
Субтитры: нет

Релиз:
[+] MediaInfo

Общее
Полное имя                               : D:KVN-2019. Vstrecha vypusknikov.HDTVRip.GeneralFilm.avi
Формат                                   : AVI
Формат/Информация                        : Audio Video Interleave
Размер файла                             : 1,91 Гбайт
Продолжительность                        : 2 ч. 16 м.
Общий поток                              : 2001 Кбит/сек

Видео
Идентификатор                            : 0
Формат                                   : MPEG-4 Visual
Профиль формата                          : Advanced Simple@L5
Параметр BVOP формата                    : 1
Параметр QPel формата                    : Нет
Параметр GMC формата                     : Без точки перехода
Параметр матрицы формата                 : Выборочная
Идентификатор кодека                     : XVID
Идентификатор кодека/Подсказка           : XviD
Продолжительность                        : 2 ч. 16 м.
Битрейт                                  : 1797 Кбит/сек
Ширина                                   : 720 пикселей
Высота                                   : 400 пикселей
Соотношение сторон                       : 16:9
Частота кадров                           : 25,000 кадров/сек
Цветовое пространство                    : YUV
Субдискретизация насыщенности            : 4:2:0
Битовая глубина                          : 8 бит
Тип развёртки                            : Прогрессивная
Метод сжатия                             : С потерями
Бит/(Пиксели*Кадры)                      : 0.250
Размер потока                            : 1,72 Гбайт (90%)
Библиотека кодирования                   : XviD 1.2.1 (UTC 2008-12-04)

Аудио
Идентификатор                            : 1
Формат                                   : AC-3
Формат/Информация                        : Audio Coding 3
Расширение режима                        : CM (complete main)
Параметр Endianness формата              : Big
Идентификатор кодека                     : 2000
Продолжительность                        : 2 ч. 16 м.
Вид битрейта                             : Постоянный
Битрейт                                  : 192 Кбит/сек
Каналы                                   : 2 канала
Расположение каналов                     : Front: L R
Частота                                  : 48,0 КГц
Битовая глубина                          : 16 бит
Метод сжатия                             : С потерями
Размер потока                            : 188 Мбайт (10%)
Выравнивание                             : Соединение по промежуткам
Продолжительность промежутка             : 32  мс. (0,80 видеокадр)




[+] Команды

Сборная Камызякского края по КВНу (Астраханская область).
«Уральские пельмени» (Екатеринбург).
«Город Пятигорск» (Ставропольский край).



Скриншоты:
[+] Всего файлов в раздаче - 1:
KVN-2019. Vstrecha vypusknikov.HDTVRip.GeneralFilm.avi1.91 GB

Похожие раздачи по запросу - встреча:
2019-11-24 U КВН-2019. Встреча выпускников [23.11] (2019) HDTV 1080i от GeneralFilm 9.93 GB ↑ 67 ↓ 38
2019-11-23 U КВН-2019. Встреча выпускников - 2019 [23.11] (2019) SATRip 1.84 GB ↑ 498 ↓ 335

Отзывы
Зарегистрируйтесь чтобы добавить комментарий.
Обратная связь
Copyleft ©