↑↓Torrent.by
Поиск
Логин: Регистрация
Пароль: Восстановить пароль

КВН-2019. Встреча выпускников [23.11] (2019) HDTV 1080i от GeneralFilm

Скачать kvn-2019-vstrecha-vypusknikov-23-11-hdtv-1080i-ot-generalfilm.torrent
U Магнитная ссылка Размер: 9.93 GB Раздают: 68 Качают: 36 Добавлен: 2019-11-24 06:10:46
КВН-2019. Встреча выпускников [23.11] (2019) HDTV 1080i от GeneralFilm

Оригинальное название: КВН-2019. Встреча выпускников
Год выпуска: 2019
Жанр:  Юмор
Выпущено: Россия, АМИК, Первый канал
Ведущий: Александр Масляков

О фильме: На одной сцене встретятся команды, которые, уже закончив свою карьеру в КВН, остаются популярны и сегодня. Для кого-то это будет реванш, для кого-то — еще одна попытка доказать свое превосходство. Игра войдет в историю и запомнится как самая большая и теплая встреча с любимыми кавээнщиками. Ведь, как и в школе, встреча выпускников Клуба — это лишний повод увидеть старых и добрых друзей по кавээновской сцене.

Качество: HDTV (1080i)
Видео: MPEG-TS AVC, 9305 Кбит/с, 1920x1080, 25 кадр/с
Аудио: Русский  (AC3, 2 ch, 384 Кбит/с), (MP2, 2 ch, 192 Кбит/с)
Продолжительность: 02:16:37
Перевод: Не требуется
Субтитры: нет

Релиз:
[+] MediaInfo

Общее
Идентификатор                            : 1 (0x1)
Полное имя                               : D:ЗаписьKVN-2019. Vstrecha vypusknikov.HDTV(1080i).GeneralFilm.ts
Формат                                   : MPEG-TS
Размер файла                             : 9,93 Гбайт
Продолжительность                        : 2 ч. 16 м.
Режим общего битрейта                    : Переменный
Общий поток                              : 10,4 Мбит/сек

Видео
Идентификатор                            : 2931 (0xB73)
Идентификатор меню                       : 1378 (0x562)
Формат                                   : AVC
Формат/Информация                        : Advanced Video Codec
Профиль формата                          : High@L4.0
Параметр CABAC формата                   : Да
Параметр ReFrames формата                : 4 кадра
Идентификатор кодека                     : 27
Продолжительность                        : 2 ч. 16 м.
Битрейт                                  : 9305 Кбит/сек
Ширина                                   : 1920 пикселей
Высота                                   : 1080 пикселей
Соотношение сторон                       : 16:9
Частота кадров                           : 25,000 кадров/сек
Цветовое пространство                    : YUV
Субдискретизация насыщенности            : 4:2:0
Битовая глубина                          : 8 бит
Тип развёртки                            : MBAFF
Бит/(Пиксели*Кадры)                      : 0.179
Размер потока                            : 8,88 Гбайт (89%)

Аудио #1
Идентификатор                            : 2904 (0xB58)
Идентификатор меню                       : 1378 (0x562)
Формат                                   : AC-3
Формат/Информация                        : Audio Coding 3
Расширение режима                        : CM (complete main)
Параметр Endianness формата              : Big
Идентификатор кодека                     : 6
Продолжительность                        : 2 ч. 16 м.
Вид битрейта                             : Постоянный
Битрейт                                  : 384 Кбит/сек
Каналы                                   : 6 каналов
Расположение каналов                     : Front: L C R, Side: L R, LFE
Частота                                  : 48,0 КГц
Битовая глубина                          : 16 бит
Метод сжатия                             : С потерями
Задержка видео                           : -120 мс.
Размер потока                            : 375 Мбайт (4%)
Язык                                     : Russian

Аудио #2
Идентификатор                            : 2905 (0xB59)
Идентификатор меню                       : 1378 (0x562)
Формат                                   : MPEG Audio
Версия формата                           : Version 1
Профиль формата                          : Layer 2
Идентификатор кодека                     : 3
Продолжительность                        : 2 ч. 16 м.
Вид битрейта                             : Постоянный
Битрейт                                  : 192 Кбит/сек
Каналы                                   : 2 канала
Частота                                  : 48,0 КГц
Метод сжатия                             : С потерями
Задержка видео                           : -120 мс.
Размер потока                            : 188 Мбайт (2%)
Язык                                     : Russian




[+] Команды

Сборная Камызякского края по КВНу (Астраханская область).
«Уральские пельмени» (Екатеринбург).
«Город Пятигорск» (Ставропольский край).



Скриншоты:
[+] Всего файлов в раздаче - 1:
KVN-2019. Vstrecha vypusknikov.HDTV(1080i).GeneralFilm.ts9.93 GB

Похожие раздачи по запросу - встреча:
2019-11-24 U КВН-2019. Встреча выпускников [23.11] (2019) HDTVRip от GeneralFilm 1.91 GB ↑ 122 ↓ 62
2019-11-23 U КВН-2019. Встреча выпускников - 2019 [23.11] (2019) SATRip 1.84 GB ↑ 493 ↓ 334

Отзывы
Зарегистрируйтесь чтобы добавить комментарий.
Обратная связь
Copyleft ©