↑↓torrent.by
Поиск
Логин: Регистрация
Пароль: Восстановить пароль

Однажды в… Голливуде / Once Upon a Time ... in Hollywood (2019) WEB-DL 1080p от селезень | iTunes

Скачать odnazhdy-v-gollivude-once-upon-a-time-in-hollywood-2019-web-dl-1080p-ot-selezen-itunes.torrent
U Магнитная ссылка Размер: 11.64 GB Раздают: 3122 Качают: 1539 Добавлен: 2019-11-25 12:40:07
Однажды в… Голливуде / Once Upon a Time ... in Hollywood (2019) WEB-DL 1080p от селезень | iTunes

Название: Однажды в… Голливуде
Оригинальное название: Once Upon a Time ... in Hollywood
Год выхода: 2019
Жанр: Драма, комедия
Режиссер: Квентин Тарантино
В ролях: Брэд Питт, Леонардо ДиКаприо, Марго Робби, Майя Хоук, Остин Роберт Батлер, Сидни Свини, Маргарет Куэлли, Дакота Фэннинг, Тимоти Олифант, Аль Пачино, Эмиль Хирш, Джулия Баттерз, Брюс Дерн

О фильме: Фильм повествует о череде событий, произошедших в Голливуде в 1969 году, на закате его «золотого века». По сюжету, известный ТВ актер Рик Далтон и его дублер Клифф Бут пытаются найти свое место в стремительно меняющемся мире киноиндустрии.

Страна: Великобритания, США, Китай
Студия: Bona Film Group, Heyday Films, Sony Pictures Entertainment
Продолжительность: 02:41:27
Перевод: Дублированный | iTunes

Качество: WEB-DL 1080p
Видео: MPEG-4 AVC, 1920x1080, 9138 Kbit/s, 23.976 fps
Аудио #01: 48 kHz, AC3, 5.1, 384 Kbps | iTunes | RUS |
Аудио #02: 48 kHz, AC3, 2.0, 160 Kbps | iTunes | UKR |
Аудио #03: 48 kHz, E-AC3, 5.1, 640 Kbps | Оригинал |  ENG |
Субтитры: Русские (Forced, full), украинские (Full), английские

Релиз:


[+] MI
General
Unique ID                   : 199337691860654861780691323330434537465 (0x95F70B00BBDB2AE368403159324D97F9)
Complete name               : F:Video111Once.Upon.a.Time.in.Hollywood.2019.WEB-DL.1080p.seleZen.mkv
Format                      : Matroska
Format version              : Version 4
File size                   : 11.6 GiB
Duration                    : 2 h 41 min
Overall bit rate            : 10.3 Mb/s
Movie name                  : Once Upon a Time in Hollywood 2019 from селезень
Encoded date                : UTC 2019-11-24 19:30:22
Writing application         : mkvmerge v40.0.0 ('Old Town Road + Pony') 64-bit
Writing library             : libebml v1.3.9 + libmatroska v1.5.2

Video
ID                          : 1
Format                      : AVC
Format/Info                 : Advanced Video Codec
Format profile              : High@L4
Format settings             : CABAC / 4 Ref Frames
Format settings, CABAC      : Yes
Format settings, Reference  : 4 frames
Codec ID                    : V_MPEG4/ISO/AVC
Duration                    : 2 h 41 min
Bit rate mode               : Constant
Bit rate                    : 9 138 kb/s
Nominal bit rate            : 10 000 kb/s
Width                       : 1 920 pixels
Height                      : 1 080 pixels
Display aspect ratio        : 16:9
Frame rate mode             : Constant
Frame rate                  : 23.976 (24000/1001) FPS
Color space                 : YUV
Chroma subsampling          : 4:2:0
Bit depth                   : 8 bits
Scan type                   : Progressive
Bits/(Pixel*Frame)          : 0.184
Stream size                 : 10.3 GiB (89%)
Language                    : English
Default                     : Yes
Forced                      : No
Color range                 : Limited
Color primaries             : BT.709
Transfer characteristics    : BT.709
Matrix coefficients         : BT.709

Audio #1
ID                          : 2
Format                      : AC-3
Format/Info                 : Audio Coding 3
Commercial name             : Dolby Digital
Codec ID                    : A_AC3
Duration                    : 2 h 41 min
Bit rate mode               : Constant
Bit rate                    : 384 kb/s
Channel(s)                  : 6 channels
Channel layout              : L R C LFE Ls Rs
Sampling rate               : 48.0 kHz
Frame rate                  : 31.250 FPS (1536 SPF)
Bit depth                   : 16 bits
Compression mode            : Lossy
Stream size                 : 443 MiB (4%)
Title                       : iTunes
Language                    : Russian
Service kind                : Complete Main
Default                     : Yes
Forced                      : Yes

Audio #2
ID                          : 3
Format                      : AC-3
Format/Info                 : Audio Coding 3
Commercial name             : Dolby Digital
Codec ID                    : A_AC3
Duration                    : 2 h 41 min
Bit rate mode               : Constant
Bit rate                    : 160 kb/s
Channel(s)                  : 2 channels
Channel layout              : L R
Sampling rate               : 48.0 kHz
Frame rate                  : 31.250 FPS (1536 SPF)
Bit depth                   : 16 bits
Compression mode            : Lossy
Stream size                 : 185 MiB (2%)
Title                       : iTunes
Language                    : Ukrainian
Service kind                : Complete Main
Default                     : No
Forced                      : No

Audio #3
ID                          : 4
Format                      : E-AC-3
Format/Info                 : Enhanced AC-3
Commercial name             : Dolby Digital Plus
Codec ID                    : A_EAC3
Duration                    : 2 h 41 min
Bit rate mode               : Constant
Bit rate                    : 640 kb/s
Channel(s)                  : 6 channels
Channel layout              : L R C LFE Ls Rs
Sampling rate               : 48.0 kHz
Frame rate                  : 31.250 FPS (1536 SPF)
Compression mode            : Lossy
Delay relative to video     : 6 ms
Stream size                 : 739 MiB (6%)
Title                       : Original
Language                    : English
Service kind                : Complete Main
Default                     : No
Forced                      : No

Text #1
ID                          : 5
Format                      : UTF-8
Codec ID                    : S_TEXT/UTF8
Codec ID/Info               : UTF-8 Plain Text
Duration                    : 2 h 36 min
Bit rate                    : 0 b/s
Count of elements           : 16
Stream size                 : 646 Bytes (0%)
Title                       : Forced
Language                    : Russian
Default                     : Yes
Forced                      : Yes

Text #2
ID                          : 6
Format                      : UTF-8
Codec ID                    : S_TEXT/UTF8
Codec ID/Info               : UTF-8 Plain Text
Duration                    : 2 h 40 min
Bit rate                    : 75 b/s
Count of elements           : 1766
Stream size                 : 88.7 KiB (0%)
Title                       : Full
Language                    : Russian
Default                     : No
Forced                      : No

Text #3
ID                          : 7
Format                      : UTF-8
Codec ID                    : S_TEXT/UTF8
Codec ID/Info               : UTF-8 Plain Text
Duration                    : 2 h 40 min
Bit rate                    : 82 b/s
Count of elements           : 1817
Stream size                 : 97.1 KiB (0%)
Title                       : Full
Language                    : Ukrainian
Default                     : No
Forced                      : No

Text #4
ID                          : 8
Format                      : UTF-8
Codec ID                    : S_TEXT/UTF8
Codec ID/Info               : UTF-8 Plain Text
Duration                    : 2 h 39 min
Bit rate                    : 56 b/s
Count of elements           : 2160
Stream size                 : 65.6 KiB (0%)
Title                       : Full
Language                    : English
Default                     : No
Forced                      : No

Text #5
ID                          : 9
Format                      : UTF-8
Codec ID                    : S_TEXT/UTF8
Codec ID/Info               : UTF-8 Plain Text
Duration                    : 2 h 40 min
Bit rate                    : 61 b/s
Count of elements           : 2543
Stream size                 : 72.8 KiB (0%)
Title                       : SDH
Language                    : English
Default                     : No
Forced                      : No

Menu
00:00:00.000                : en:1
00:04:49.415                : en:2
00:13:45.200                : en:3
00:18:29.150                : en:4
00:22:00.319                : en:5
00:25:59.349                : en:6
00:28:41.094                : en:7
00:33:45.106                : en:8
00:40:19.333                : en:9
00:49:59.454                : en:10
00:51:48.688                : en:11
00:59:52.254                : en:12
01:02:32.872                : en:13
01:04:28.612                : en:14
01:09:16.733                : en:15
01:17:40.778                : en:16
01:20:25.776                : en:17
01:26:28.430                : en:18
01:32:54.441                : en:19
01:39:58.490                : en:20
01:47:55.216                : en:21
01:53:00.229                : en:22
01:58:09.538                : en:23
02:06:23.990                : en:24
02:11:22.955                : en:25
02:15:50.097                : en:26
02:21:30.187                : en:27
02:29:50.729                : en:28
02:36:28.251                : en:29
02:38:51.227                : en:30



Скриншоты:
[+] Всего файлов в раздаче - 1:
Once.Upon.a.Time.in.Hollywood.2019.WEB-DL.1080p.seleZen.mkv11.64 GB

Показать еще раздачи по запросу однажды:
2021-03-01 U Однажды в России [07х18] [эфир от 28.02] (2020) SATRip 592.62 MB ↑ 274 ↓ 16
2021-02-28 U Однажды в России [07х01-17] (2020) WEBRip 1080p 23.90 GB ↑ 24 ↓ 46
2021-02-22 U Однажды в России [07х01-17] (2020) WEBRip 9.96 GB ↑ 67 ↓ 230
2021-02-21 U Однажды в России [07х17] [эфир от 21.02] (2021) SATRip 565.23 MB ↑ 131 ↓ 63
2021-02-16 U Однажды в России [эфир от 14.02] (2021) WEBRip 1080p 1К1.36 GB ↑ 39 ↓ 17
2021-02-15 U Однажды в России [07х16] [эфир от 14.02] (2021) SATRip 565.54 MB ↑ 237 ↓ 28
2021-01-05 U Однажды в России [07х01-14] (2020) WEBRip 720p от Files-x 14.39 GB ↑ 40 ↓ 99

Отзывы
Зарегистрируйтесь чтобы добавить комментарий.
Загрузите программу
  uTorrent.exe
Обратная связь
Copyleft ©