↑↓torrent.by
Поиск
Логин: Регистрация
Пароль: Восстановить пароль

Рэмбо: Последняя кровь / Рембо: Остання кров / Rambo: Last Blood (2019) WEBRip 1080p | Line | UKR

Скачать rembo-poslednyaya-krov-ostannya-rambo-last-blood-2019-webrip-1080p-line-ukr.torrent
U Магнитная ссылка Размер: 3.28 GB Раздают: 307 Качают: 73 Добавлен: 2019-11-25 12:41:27
Рэмбо: Последняя кровь / Рембо: Остання кров / Rambo: Last Blood (2019) WEBRip 1080p | Line | UKR

Название: Рэмбо: Последняя кровь
Оригинальное название: Rambo: Last Blood
Год выхода: 2019
Жанр: боевик, вестерн, приключения, триллер
Режиссер: Адриан Грюнберг

В ролях:
Сильвестр Сталлоне, Паз Вега, Луис Мэндилор, Оскар Хаенада, Серджо Перис-Менчета и другие

О фильме:

У Джона Рэмбо - посттравматический синдромом. Чтобы справиться с демонами прошлого, он переезжает на ранчо, где заботится о животных и старается не вспоминать о войне. Теперь его ближайшие друзья - девушка Габриэлла и ее бабушка. Однажды Габриэлла отправляется в Мексику на поиски отца, который оставил семью много лет назад. Но внезапно она исчезает бесследно и Рэмбо отправляется на ее поиски. Во время поисков он раскрывает деятельность преступной организации, занимающейся торговлей женщинами. Теперь Рэмбо придется снова взяться за оружие, чтобы спасти девушку и остановить преступников.

Страна: США
Студия: Lionsgate, Millennium Films, Campbell Grobman Films  
Продолжительность: 01:30:26
Перевод: Профессиональный дублированный (украинский язык)

Формат: MKV
Качество: WEBRip 1080p
Видео: H.264, 1920х800, 4800 кб/с

Звук:
Аудио # 1: AC3, 2.0, 192 кб/с | UKR |    
Аудио # 2: AC3, 2.0, 192 кб/с | ENG | Оригинал

Внимание! Присутствуют корейские встроенные субтитры

Субтитри :  английские (Forced, Full), корейские (встроенные, жесткие)
Тип: мягкие формат: *.srt


[+] MediaInfo
General
Complete name                            : Rambo Last Blood (2019) WEBRip 1080p  
Format                                   : Matroska
Format version                           : Version 4
File size                                : 3.28 GiB
Duration                                 : 1 h 30 min
Overall bit rate                         : 5 196 kb/s
Encoded date                             : UTC 2019-11-24 10:04:28
Writing application                      : mkvmerge v30.1.0 ('Forever And More') 64-bit
Writing library                          : libebml v1.3.6 + libmatroska v1.4.9
Cover                                    : Yes
Attachments                              : cover.jpg

Video
ID                                       : 1
Format                                   : AVC
Format/Info                              : Advanced Video Codec
Format profile                           : High@L4.1
Format settings                          : CABAC / 4 Ref Frames
Format settings, CABAC                   : Yes
Format settings, RefFrames               : 4 frames
Codec ID                                 : V_MPEG4/ISO/AVC
Duration                                 : 1 h 30 min
Bit rate                                 : 4 800 kb/s
Width                                    : 1 920 pixels
Height                                   : 800 pixels
Display aspect ratio                     : 2.40:1
Frame rate mode                          : Constant
Frame rate                               : 30.000 FPS
Color space                              : YUV
Chroma subsampling                       : 4:2:0
Bit depth                                : 8 bits
Scan type                                : Progressive
Bits/(Pixel*Frame)                       : 0.104
Stream size                              : 3.04 GiB (93%)
Title                                    : Rambo.Last.Blood.2019.1080p.KORSUB.HDRip.x264.AAC2.0-STUTTERSHIT
Writing library                          : x264 core 148 r2748 97eaef2
Encoding settings                        : cabac=1 / ref=4 / deblock=1:0:0 / analyse=0x3:0x113 / me=umh / subme=9 / psy=1 / psy_rd=1.00:0.00 / mixed_ref=1 / me_range=16 / chroma_me=1 / trellis=2 / 8x8dct=1 / cqm=0 / deadzone=21,11 / fast_pskip=1 / chroma_qp_offset=-2 / threads=72 / lookahead_threads=6 / sliced_threads=0 / nr=0 / decimate=1 / interlaced=0 / bluray_compat=0 / constrained_intra=0 / bframes=3 / b_pyramid=2 / b_adapt=2 / b_bias=0 / direct=3 / weightb=1 / open_gop=0 / weightp=2 / keyint=250 / keyint_min=25 / scenecut=40 / intra_refresh=0 / rc_lookahead=50 / rc=abr / mbtree=1 / bitrate=4800 / ratetol=1.0 / qcomp=0.60 / qpmin=0 / qpmax=69 / qpstep=4 / ip_ratio=1.40 / aq=1:1.00
Language                                 : English
Default                                  : Yes
Forced                                   : No

Audio #1
ID                                       : 2
Format                                   : AC-3
Format/Info                              : Audio Coding 3
Commercial name                          : Dolby Digital
Codec ID                                 : A_AC3
Duration                                 : 1 h 30 min
Bit rate mode                            : Constant
Bit rate                                 : 192 kb/s
Channel(s)                               : 2 channels
Channel layout                           : L R
Sampling rate                            : 48.0 kHz
Frame rate                               : 31.250 FPS (1536 SPF)
Bit depth                                : 16 bits
Compression mode                         : Lossy
Stream size                              : 124 MiB (4%)
Title                                    : Dub [Line], AC3 2.0 192 Kbps
Language                                 : Ukrainian
Service kind                             : Complete Main
Default                                  : Yes
Forced                                   : No

Audio #2
ID                                       : 3
Format                                   : AC-3
Format/Info                              : Audio Coding 3
Commercial name                          : Dolby Digital
Codec ID                                 : A_AC3
Duration                                 : 1 h 30 min
Bit rate mode                            : Constant
Bit rate                                 : 192 kb/s
Channel(s)                               : 2 channels
Channel layout                           : L R
Sampling rate                            : 48.0 kHz
Frame rate                               : 31.250 FPS (1536 SPF)
Bit depth                                : 16 bits
Compression mode                         : Lossy
Stream size                              : 124 MiB (4%)
Title                                    : Original, AC3 2.0 192 Kbps
Language                                 : English
Service kind                             : Complete Main
Default                                  : No
Forced                                   : No

Text #1
ID                                       : 4
Format                                   : UTF-8
Codec ID                                 : S_TEXT/UTF8
Codec ID/Info                            : UTF-8 Plain Text
Duration                                 : 1 h 19 min
Bit rate                                 : 8 b/s
Count of elements                        : 182
Stream size                              : 4.81 KiB (0%)
Title                                    : Forced
Language                                 : English
Default                                  : Yes
Forced                                   : No

Text #2
ID                                       : 5
Format                                   : UTF-8
Codec ID                                 : S_TEXT/UTF8
Codec ID/Info                            : UTF-8 Plain Text
Duration                                 : 1 h 29 min
Bit rate                                 : 34 b/s
Count of elements                        : 801
Stream size                              : 22.5 KiB (0%)
Title                                    : Full
Language                                 : English
Default                                  : No
Forced                                   : No



Скриншоты:
[+] Всего файлов в раздаче - 1:
Rambo Last Blood (2019) WEBRip 1080p [Ukr_Eng] [ViDeO_Hurtom].mkv3.28 GB

Похожие раздачи по запросу - рэмбо:
2019-12-04 U Рэмбо: Последняя кровь / Rambo: Last Blood (2019) HDRip | iTunes 748.24 MB ↑ 700 ↓ 36
2019-12-03 U Рэмбо: Последняя кровь / Rambo: Last Blood (2019) HDRip-AVC от OlLanDGroup | iTunes 1.53 GB ↑ 629 ↓ 138
2019-12-03 U Рэмбо: Последняя кровь / Rambo: Last Blood (2019) BDRip 1080p | iTunes 7.69 GB ↑ 2033 ↓ 1213

Отзывы
Зарегистрируйтесь чтобы добавить комментарий.
Загрузите программу
  uTorrent.exe
Обратная связь
Copyleft ©