↑↓torrent.by
Поиск
Логин: Регистрация
Пароль: Восстановить пароль

Форсаж 9 / F9 (2021) BDRip 1080p | iTunes | Режиссерская версия

Скачать forsazh-9-f9-2021-bdrip-1080p-itunes-rezhisserskaya-versiya.torrent
U Магнитная ссылка Размер: 16.51 GB Раздают: 48 Качают: 22 Добавлен: 2021-09-18 08:13:53
Форсаж 9 / F9 (2021) BDRip 1080p | iTunes | Режиссерская версия

Название: Форсаж 9
Оригинальное название: F9
Год выхода: 2021
Жанр:  Боевик, триллер, криминал, приключения
Режиссер: Джастин Лин
В ролях: Вин Дизель, Джон Сина, Тайриз Гибсон, Лудакрис, Джордана Брюстер, Натали Эммануэль, Мишель Родригес, Хелен Миррен, Шарлиз Терон, Майкл Рукер

О фильме:
Доминик Торетто ведет спокойную жизнь вместе с Летти и сыном Брайаном, но новая опасность всегда где-то рядом. В этот раз Доминику придется встретиться с призраками прошлого, если он хочет спасти самых близких. Команда снова собирается вместе, чтобы предотвратить дерзкий план по захвату мира, который придумал самый опасный преступник и безбашенный водитель из всех, с кем они сталкивались ранее. Ситуация усложняется тем, что этот человек — брат Доминика Джейкоб, которого много лет назад изгнали из семьи.

Страна: США, Таиланд, Канада
Студия: One Race Films, Original Film, Perfect Storm Entertainment, Roth/Kirschenbaum Films, Universal Pictures
Продолжительность: 02:29:55
Перевод: Дублированный | iTunes + Субтитры на ~ 7 мин.
Субтитры: Русские (2x Forced), Английские (Full, SDH)

Файл
Формат: Matroska
Качество: BDRip 1080p
Видео: AVC/H.264, 1920x804, 13.5 Mbps, 23.976 fps
Аудио 1: AC-3, 6 ch, 384 Kbps | Русский Dub iTunes + субтитры
Аудио 2: AC-3, 6 ch, 384 Kbps | Украинский Dub iTunes + вставки оригинала
Аудио 3: DTS, 6 ch, 1509 Kbps | Английский
Формат субтитров: softsub (SRT)


[+] M/I
x264 [info]: frame I:1419  Avg QP:17.70  size:172565
x264 [info]: frame P:54982 Avg QP:19.64  size: 97593
x264 [info]: frame B:159275 Avg QP:20.89  size: 60010
x264 [info]: consecutive B-frames:  5.3%  5.7% 12.9% 17.2% 11.6% 33.6%  4.6%  0.9%  1.6%  2.2%  1.7%  1.4%  1.4%
x264 [info]: kb/s:13490.15

General
Unique ID                                : 225259624950632646373146122781443216797 (0xA9776CFA5F7196BE69BD76CC55F7D59D)
Complete name                            : /Volumes/Promise Pegasus/F9.2021.DC.BDRip.1080p.pk.mkv
Format                                   : Matroska
Format version                           : Version 4
File size                                : 16.5 GiB
Duration                                 : 2 h 29 min
Overall bit rate                         : 15.8 Mb/s
Movie name                               : F9 2021 DC BDRip 1080p pk
Encoded date                             : UTC 2021-09-17 12:02:25
Writing application                      : mkvmerge v53.0.0 ('Fool's Gold') 64-bit
Writing library                          : libebml v1.4.1 + libmatroska v1.6.2

Video
ID                                       : 1
Format                                   : AVC
Format/Info                              : Advanced Video Codec
Format profile                           : High@L4.1
Format settings                          : CABAC / 5 Ref Frames
Format settings, CABAC                   : Yes
Format settings, Reference frames        : 5 frames
Codec ID                                 : V_MPEG4/ISO/AVC
Duration                                 : 2 h 29 min
Bit rate                                 : 13.5 Mb/s
Width                                    : 1 920 pixels
Height                                   : 804 pixels
Display aspect ratio                     : 2.40:1
Frame rate mode                          : Constant
Frame rate                               : 23.976 (24000/1001) FPS
Color space                              : YUV
Chroma subsampling                       : 4:2:0
Bit depth                                : 8 bits
Scan type                                : Progressive
Bits/(Pixel*Frame)                       : 0.365
Stream size                              : 14.1 GiB (86%)
Writing library                          : x264 core 163 r3059 b684ebe0
Encoding settings                        : cabac=1 / ref=5 / deblock=1:-3:-3 / analyse=0x3:0x133 / me=umh / subme=11 / psy=1 / psy_rd=1.05:0.00 / mixed_ref=1 / me_range=32 / chroma_me=1 / trellis=2 / 8x8dct=1 / cqm=0 / deadzone=21,11 / fast_pskip=0 / chroma_qp_offset=-2 / threads=25 / lookahead_threads=6 / sliced_threads=0 / nr=0 / decimate=0 / interlaced=0 / bluray_compat=0 / constrained_intra=0 / bframes=12 / b_pyramid=2 / b_adapt=2 / b_bias=0 / direct=3 / weightb=1 / open_gop=0 / weightp=2 / keyint=240 / keyint_min=24 / scenecut=40 / intra_refresh=0 / rc_lookahead=60 / rc=2pass / mbtree=0 / bitrate=13500 / ratetol=1.0 / qcomp=0.67 / qpmin=0 / qpmax=69 / qpstep=4 / cplxblur=20.0 / qblur=0.5 / vbv_maxrate=62500 / vbv_bufsize=78125 / nal_hrd=none / filler=0 / ip_ratio=1.30 / pb_ratio=1.20 / aq=3:0.75
Language                                 : English
Default                                  : Yes
Forced                                   : No
Color range                              : Limited
Color primaries                          : BT.709
Transfer characteristics                 : BT.709
Matrix coefficients                      : BT.709

Audio #1
ID                                       : 2
Format                                   : AC-3
Format/Info                              : Audio Coding 3
Commercial name                          : Dolby Digital
Codec ID                                 : A_AC3
Duration                                 : 2 h 29 min
Bit rate mode                            : Constant
Bit rate                                 : 384 kb/s
Channel(s)                               : 6 channels
Channel layout                           : L R C LFE Ls Rs
Sampling rate                            : 48.0 kHz
Frame rate                               : 31.250 FPS (1536 SPF)
Compression mode                         : Lossy
Stream size                              : 412 MiB (2%)
Title                                    : Russian Dub iTunes
Language                                 : Russian
Service kind                             : Complete Main
Default                                  : Yes
Forced                                   : No

Audio #2
ID                                       : 3
Format                                   : AC-3
Format/Info                              : Audio Coding 3
Commercial name                          : Dolby Digital
Codec ID                                 : A_AC3
Duration                                 : 2 h 29 min
Bit rate mode                            : Constant
Bit rate                                 : 384 kb/s
Channel(s)                               : 6 channels
Channel layout                           : L R C LFE Ls Rs
Sampling rate                            : 48.0 kHz
Frame rate                               : 31.250 FPS (1536 SPF)
Compression mode                         : Lossy
Stream size                              : 412 MiB (2%)
Title                                    : Ukrainian Dub iTunes
Language                                 : Ukrainian
Service kind                             : Complete Main
Default                                  : No
Forced                                   : No

Audio #3
ID                                       : 4
Format                                   : DTS
Format/Info                              : Digital Theater Systems
Codec ID                                 : A_DTS
Duration                                 : 2 h 29 min
Bit rate mode                            : Constant
Bit rate                                 : 1 509 kb/s
Channel(s)                               : 6 channels
Channel layout                           : C L R Ls Rs LFE
Sampling rate                            : 48.0 kHz
Frame rate                               : 93.750 FPS (512 SPF)
Bit depth                                : 24 bits
Compression mode                         : Lossy
Stream size                              : 1.58 GiB (10%)
Title                                    : English Original
Language                                 : English
Default                                  : No
Forced                                   : No

Text #1
ID                                       : 5
Format                                   : UTF-8
Codec ID                                 : S_TEXT/UTF8
Codec ID/Info                            : UTF-8 Plain Text
Duration                                 : 2 h 4 min
Bit rate                                 : 9 b/s
Count of elements                        : 173
Stream size                              : 8.47 KiB (0%)
Title                                    : Russian forced vol.1
Language                                 : Russian
Default                                  : Yes
Forced                                   : No

Text #2
ID                                       : 6
Format                                   : UTF-8
Codec ID                                 : S_TEXT/UTF8
Codec ID/Info                            : UTF-8 Plain Text
Duration                                 : 1 h 56 min
Bit rate                                 : 8 b/s
Count of elements                        : 154
Stream size                              : 7.50 KiB (0%)
Title                                    : Russian forced  vol.2
Language                                 : Russian
Default                                  : No
Forced                                   : No

Text #3
ID                                       : 7
Format                                   : UTF-8
Codec ID                                 : S_TEXT/UTF8
Codec ID/Info                            : UTF-8 Plain Text
Duration                                 : 2 h 22 min
Bit rate                                 : 48 b/s
Count of elements                        : 1676
Stream size                              : 50.7 KiB (0%)
Title                                    : English full
Language                                 : English
Default                                  : No
Forced                                   : No

Text #4
ID                                       : 8
Format                                   : UTF-8
Codec ID                                 : S_TEXT/UTF8
Codec ID/Info                            : UTF-8 Plain Text
Duration                                 : 2 h 23 min
Bit rate                                 : 55 b/s
Count of elements                        : 2039
Stream size                              : 57.8 KiB (0%)
Title                                    : English SDH
Language                                 : English
Default                                  : No
Forced                                   : No

Menu
00:00:00.000                             : en:Chapter 01
00:04:47.578                             : en:Chapter 02
00:12:27.913                             : en:Chapter 03
00:21:53.270                             : en:Chapter 04
00:26:43.268                             : en:Chapter 05
00:31:43.568                             : en:Chapter 06
00:35:36.717                             : en:Chapter 07
00:45:33.772                             : en:Chapter 08
00:53:42.761                             : en:Chapter 09
01:01:12.669                             : en:Chapter 10
01:05:24.295                             : en:Chapter 11
01:13:55.472                             : en:Chapter 12
01:25:26.121                             : en:Chapter 13
01:35:27.805                             : en:Chapter 14
01:41:34.129                             : en:Chapter 15
01:47:08.380                             : en:Chapter 16
01:57:42.472                             : en:Chapter 17
02:08:02.091                             : en:Chapter 18
02:12:25.479                             : en:Chapter 19
02:17:20.941                             : en:Chapter 20



Скриншоты:
[+] Всего файлов в раздаче - 1:
F9.2021.DC.BDRip.1080p.pk.mkv16.51 GB

Показать еще раздачи по запросу форсаж:
2021-10-05 U Форсаж 9 / F9 (2021) WEB-DLRip-AVC | Театральная версия | Локализованная версия | D 2.18 GB ↑ 40 ↓ 22
2021-10-04 U Форсаж 9 / F9 (2021) WEB-DL 1080p от селезень | Театральная версия | Локализованная версия | D 7.50 GB ↑ 34 ↓ 18
2021-09-17 U Форсаж 9 / F9 (2021) BDRip от Twister & ExKinoRay | Режиссерская версия | iTunes 1.46 GB ↑ 61 ↓ 23
2021-09-17 U Форсаж 9 / F9 (2021) BDRip от Twister & ExKinoRay | Режиссерская версия | iTunes 2.12 GB ↑ 37 ↓ 5
2021-09-17 U Форсаж 9 / F9 (2021) BDRip-AVC от OlLanDGroup | Режиссерская версия | iTunes 3.90 GB ↑ 32 ↓ 3
2021-09-16 U Форсаж 9 / F9 (2021) BDRip 720p от HD-Кинозал | iTunes | Режиссерская версия 7.68 GB ↑ 64 ↓ 23
2021-09-16 U Форсаж 9 / F9 (2021) HDRip-AVC | Режиссерская версия | iTunes 3.49 GB ↑ 48 ↓ 28

Отзывы
Зарегистрируйтесь чтобы добавить комментарий.
Загрузите программу
  byTorrent
Обратная связь
Copyleft ©