↑↓torrent.by
Поиск
Логин: Регистрация
Пароль: Восстановить пароль

Ирландец / The Irishman (2019) WEB-DLRip 720p от селезень | D

Скачать irlandec-the-irishman-2019-web-dlrip-720p-ot-selezen-d.torrent
U Магнитная ссылка Размер: 5.55 GB Раздают: 1748 Качают: 1503 Добавлен: 2019-11-27 14:47:18
Ирландец / The Irishman (2019) WEB-DLRip 720p от селезень | D

Название: Ирландец
Оригинальное название: The Irishman
Год выхода: 2019
Жанр: Драма, криминал, биография
Режиссер: Мартин Скорсезе
В ролях: Роберт Де Ниро, Анна Пэкуин, Аль Пачино, Джо Пеши, Алекса Палладино, Джесси Племонс, Харви Кейтель, Бобби Каннавале, Стивен Грэм, Джек Хьюстон

О фильме: История о Фрэнке Ширэне по прозвищу Ирландец, которому приписывают убийство 25 гангстеров, включая самого Джимми Хоффу.

Страна: США
Студия: Fábrica de Cine, Robert Simonds Company, The, Sikelia Productions, Tribeca Productions
Продолжительность: 03:29:26
Перевод: Дублированный | Netflix

Качество: WEB-DL 720p
Видео: MPEG-4 AVC, 1280x720, 2490 Kbit/s, 24 fps
Аудио #01: 48 kHz, AC3, 5.1, 640 Kbps | Дублированный | RUS |
Аудио #02: 48 kHz, E-AC3+Dolby Atmos, 5.1, 768 Kbps | Оригинал |  ENG |
Субтитры: Русские (Forced, full), английские

Релиз:


[+] MI
General
Unique ID                   : 253985837366583399690606704185748138584 (0xBF13E49940CC1F3B037B1D47D12AAA58)
Complete name               : F:Video111The.Irishman.2019.NF.WEB-DL.720p.seleZen.mkv
Format                      : Matroska
Format version              : Version 4
File size                   : 5.55 GiB
Duration                    : 3 h 29 min
Overall bit rate mode       : Variable
Overall bit rate            : 3 795 kb/s
Movie name                  : The Irishman 2019 from селезень
Encoded date                : UTC 2019-11-27 08:47:00
Writing application         : mkvmerge v40.0.0 ('Old Town Road + Pony') 64-bit
Writing library             : libebml v1.3.9 + libmatroska v1.5.2

Video
ID                          : 1
Format                      : AVC
Format/Info                 : Advanced Video Codec
Format profile              : Main@L3.1
Format settings             : CABAC / 3 Ref Frames
Format settings, CABAC      : Yes
Format settings, Reference  : 3 frames
Codec ID                    : V_MPEG4/ISO/AVC
Duration                    : 3 h 29 min
Bit rate mode               : Variable
Bit rate                    : 2 490 kb/s
Maximum bit rate            : 3 735 kb/s
Width                       : 1 280 pixels
Height                      : 720 pixels
Display aspect ratio        : 16:9
Frame rate mode             : Constant
Frame rate                  : 24.000 FPS
Color space                 : YUV
Chroma subsampling          : 4:2:0
Bit depth                   : 8 bits
Scan type                   : Progressive
Bits/(Pixel*Frame)          : 0.113
Stream size                 : 3.49 GiB (63%)
Writing library             : x264 core 148 r2715 7e75228
Encoding settings           : cabac=1 / ref=3 / deblock=1:0:0 / analyse=0x1:0x111 / me=umh / subme=10 / psy=1 / psy_rd=1.00:0.00 / mixed_ref=1 / me_range=24 / chroma_me=1 / trellis=2 / 8x8dct=0 / cqm=0 / deadzone=21,11 / fast_pskip=1 / chroma_qp_offset=-2 / threads=8 / lookahead_threads=1 / sliced_threads=0 / nr=0 / decimate=1 / interlaced=0 / bluray_compat=0 / stitchable=1 / constrained_intra=0 / bframes=2 / b_pyramid=0 / b_adapt=2 / b_bias=0 / direct=3 / weightb=1 / open_gop=0 / weightp=2 / keyint=250 / keyint_min=24 / scenecut=0 / intra_refresh=0 / rc_lookahead=48 / rc=2pass / mbtree=1 / bitrate=2490 / ratetol=1.0 / qcomp=0.50 / qpmin=6 / qpmax=51 / qpstep=4 / cplxblur=20.0 / qblur=0.5 / vbv_maxrate=3735 / vbv_bufsize=4980 / nal_hrd=vbr / filler=0 / ip_ratio=1.40 / aq=1:1.00
Language                    : English
Default                     : Yes
Forced                      : No

Audio #1
ID                          : 2
Format                      : AC-3
Format/Info                 : Audio Coding 3
Commercial name             : Dolby Digital
Codec ID                    : A_AC3
Duration                    : 3 h 29 min
Bit rate mode               : Constant
Bit rate                    : 640 kb/s
Channel(s)                  : 6 channels
Channel layout              : L R C LFE Ls Rs
Sampling rate               : 48.0 kHz
Frame rate                  : 31.250 FPS (1536 SPF)
Bit depth                   : 16 bits
Compression mode            : Lossy
Stream size                 : 959 MiB (17%)
Title                       : Dub
Language                    : Russian
Service kind                : Complete Main
Default                     : Yes
Forced                      : Yes

Audio #2
ID                          : 3
Format                      : E-AC-3 JOC
Format/Info                 : Enhanced AC-3 with Joint Object Coding
Commercial name             : Dolby Digital Plus with Dolby Atmos
Codec ID                    : A_EAC3
Duration                    : 3 h 29 min
Bit rate mode               : Constant
Bit rate                    : 768 kb/s
Channel(s)                  : 6 channels
Channel layout              : L R C LFE Ls Rs
Sampling rate               : 48.0 kHz
Frame rate                  : 31.250 FPS (1536 SPF)
Compression mode            : Lossy
Stream size                 : 1.12 GiB (20%)
Title                       : Original
Language                    : English
Service kind                : Complete Main
Default                     : No
Forced                      : No
Complexity index            : 16
Number of dynamic objects   : 15
Bed channel count           : 1 channel
Bed channel configuration   : LFE

Text #1
ID                          : 4
Format                      : UTF-8
Codec ID                    : S_TEXT/UTF8
Codec ID/Info               : UTF-8 Plain Text
Duration                    : 3 h 28 min
Bit rate                    : 10 b/s
Count of elements           : 215
Stream size                 : 15.9 KiB (0%)
Title                       : Forced
Language                    : Russian
Default                     : Yes
Forced                      : Yes

Text #2
ID                          : 5
Format                      : UTF-8
Codec ID                    : S_TEXT/UTF8
Codec ID/Info               : UTF-8 Plain Text
Duration                    : 3 h 28 min
Bit rate                    : 97 b/s
Count of elements           : 2973
Stream size                 : 149 KiB (0%)
Title                       : Full
Language                    : Russian
Default                     : No
Forced                      : No

Text #3
ID                          : 6
Format                      : UTF-8
Codec ID                    : S_TEXT/UTF8
Codec ID/Info               : UTF-8 Plain Text
Duration                    : 57 s 292 ms
Bit rate                    : 47 b/s
Count of elements           : 17
Stream size                 : 343 Bytes (0%)
Title                       : Forced
Language                    : English
Default                     : No
Forced                      : No

Text #4
ID                          : 7
Format                      : UTF-8
Codec ID                    : S_TEXT/UTF8
Codec ID/Info               : UTF-8 Plain Text
Duration                    : 3 h 16 min
Bit rate                    : 69 b/s
Count of elements           : 2927
Stream size                 : 101 KiB (0%)
Title                       : Full
Language                    : English
Default                     : No
Forced                      : No



Скриншоты:
[+] Всего файлов в раздаче - 1:
The.Irishman.2019.NF.WEB-DL.720p.seleZen.mkv5.55 GB

Показать еще раздачи по запросу ирландец:
2019-12-20 U Ирландец / The Irishman (2019) WEB-DL 720p | NewStudio, Jaskier 6.49 GB ↑ 63 ↓ 38
2019-12-11 U OST - Ирландец / The Irishman (2019) MP3 139.32 MB ↑ 107 ↓ 13
2019-12-09 U Ирландец / The Irishman (2019) WEB-DLRip-AVC от ExKinoRay | P, A 4.06 GB ↑ 119 ↓ 36
2019-12-09 U Ирландец / The Irishman (2019) WEB-DL 1080p | D, P, A 13.88 GB ↑ 112 ↓ 56
2019-11-30 U Ирландец / The Irishman (2019) WEB-DLRip | КПК | D 746.80 MB ↑ 121 ↓ 25
2019-11-30 U Ирландец / The Irishman (2019) WEB-DLRip от Scarabey | Пифагор 1.45 GB ↑ 190 ↓ 49
2019-11-29 U Ирландец / The Irishman (2019) UHD WEB-DL 2160p от селезень | 4K | HDR | D 27.19 GB ↑ 252 ↓ 321

Отзывы
Зарегистрируйтесь чтобы добавить комментарий.
Обратная связь
Copyleft ©