↑↓Torrent.by
Поиск
Логин: Регистрация
Пароль: Восстановить пароль

Король Лев / The Lion King (2019) BDRip 720p от ExKinoRay | Лицензия

Скачать korol-lev-the-lion-king-2019-bdrip-720p-ot-exkinoray-licenziya.torrent
U Магнитная ссылка Размер: 4.71 GB Раздают: 66 Качают: 27 Добавлен: 2019-11-27 14:48:24
Король Лев / The Lion King (2019) BDRip 720p от ExKinoRay | Лицензия

Название: Король Лев  
Оригинальное название: The Lion King
Год выхода: 2019
Жанр: Мультфильм, мюзикл, драма, приключения, семейный
Режиссер: Джон Фавро
Роли озвучивают: Джеймс Эрл Джонс, Дональд Гловер, Чиветел Эджиофор, Джон Оливер, Джон Кани, Элфри Вудард, Джейдон Маккрэри, Шахади Райт Джозеф, Пенни Джонсон, Кигэн-Майкл Ки

О фильме:  Львенок Симба с раннего детства знал, что однажды станет Королем Львом. Потеря отца, величественного и бесстрашного Муфасы, вероломство дяди, захватившего власть; чувство вины, бегство из прайда, новые друзья и философия беззаботности «акуна матата» вынуждают Симбу забыть о своем предназначении. Но царству зверей по-прежнему нужен настоящий король, и однажды он вспомнит дорогу домой.

Страна: США
Студия: Fairview Entertainment, Walt Disney Pictures
Продолжительность: 01:58:15
Перевод: Профессиональный (полное дублирование) | Лицензия

Формат: MKV
Качество: BDRip 720p
Видео: MPEG-4 AVC, 1280x720, 4415 Kbit/s, 23.976 fps
Аудио #01: 48 kHz, AC3, 5.1, 640 Kbps | Лицензия | RUS |
Аудио #02: 48 kHz, AC3, 5.1, 640 Kbps | Оригинал |  ENG |
Субтитры: Русские (Full, SDH), английские

Релиз:

Автор релиза:


[+] ОтчетМедиаИнфо
General
Unique ID                                : 247427339802408027682460853548656310322 (0xBA24C5B40C19FF729D6A0F2EF06B3832)
Complete name                            : F:The.Lion.King.2019.BDRip.720p.ExKinoRay.mkv
Format                                   : Matroska
Format version                           : Version 2
File size                                : 4.71 GiB
Duration                                 : 1 h 58 min
Overall bit rate                         : 5 700 kb/s
Movie name                               : The Lion King 2019 from ExKinoRay
Encoded date                             : UTC 2019-11-26 20:24:48
Writing application                      : mkvmerge v5.6.0 ('Kenya Kane') built on May 27 2012 16:44:04
Writing library                          : libebml v1.2.3 + libmatroska v1.3.0

Video
ID                                       : 1
Format                                   : AVC
Format/Info                              : Advanced Video Codec
Format profile                           : High@L4.1
Format settings, CABAC                   : Yes
Format settings, ReFrames                : 9 frames
Codec ID                                 : V_MPEG4/ISO/AVC
Duration                                 : 1 h 58 min
Bit rate                                 : 4 415 kb/s
Width                                    : 1 280 pixels
Height                                   : 720 pixels
Display aspect ratio                     : 16:9
Frame rate mode                          : Constant
Frame rate                               : 23.976 (23976/1000) FPS
Color space                              : YUV
Chroma subsampling                       : 4:2:0
Bit depth                                : 8 bits
Scan type                                : Progressive
Bits/(Pixel*Frame)                       : 0.200
Stream size                              : 3.56 GiB (76%)
Title                                    : Enigma
Writing library                          : x264 core 152 r2851 ba24899
Encoding settings                        : cabac=1 / ref=9 / deblock=1:-3:-2 / analyse=0x3:0x113 / me=umh / subme=10 / psy=1 / psy_rd=1.04:0.05 / mixed_ref=1 / me_range=32 / chroma_me=1 / trellis=2 / 8x8dct=1 / cqm=0 / deadzone=21,11 / fast_pskip=0 / chroma_qp_offset=-3 / threads=12 / lookahead_threads=3 / sliced_threads=0 / nr=0 / decimate=0 / interlaced=0 / bluray_compat=0 / constrained_intra=0 / bframes=12 / b_pyramid=2 / b_adapt=2 / b_bias=0 / direct=3 / weightb=1 / open_gop=0 / weightp=2 / keyint=240 / keyint_min=23 / scenecut=40 / intra_refresh=0 / rc=2pass / mbtree=0 / bitrate=4415 / ratetol=1.0 / qcomp=0.60 / qpmin=0 / qpmax=51 / qpstep=4 / cplxblur=20.0 / qblur=0.5 / ip_ratio=1.40 / pb_ratio=1.30 / aq=1:1.00
Language                                 : English
Default                                  : Yes
Forced                                   : No
Color range                              : Limited
Color primaries                          : BT.709
Transfer characteristics                 : BT.709
Matrix coefficients                      : BT.709

Audio #1
ID                                       : 2
Format                                   : AC-3
Format/Info                              : Audio Coding 3
Mode extension                           : CM (complete main)
Format settings, Endianness              : Big
Codec ID                                 : A_AC3
Duration                                 : 1 h 58 min
Bit rate mode                            : Constant
Bit rate                                 : 640 kb/s
Channel(s)                               : 6 channels
Channel positions                        : Front: L C R, Side: L R, LFE
Sampling rate                            : 48.0 kHz
Frame rate                               : 31.250 FPS (1536 spf)
Compression mode                         : Lossy
Stream size                              : 541 MiB (11%)
Title                                    : Dub (Blu-Ray)
Language                                 : Russian
Default                                  : Yes
Forced                                   : No

Audio #2
ID                                       : 3
Format                                   : AC-3
Format/Info                              : Audio Coding 3
Mode extension                           : CM (complete main)
Format settings, Endianness              : Big
Codec ID                                 : A_AC3
Duration                                 : 1 h 58 min
Bit rate mode                            : Constant
Bit rate                                 : 640 kb/s
Channel(s)                               : 6 channels
Channel positions                        : Front: L C R, Side: L R, LFE
Sampling rate                            : 48.0 kHz
Frame rate                               : 31.250 FPS (1536 spf)
Compression mode                         : Lossy
Stream size                              : 541 MiB (11%)
Title                                    : original
Language                                 : English
Default                                  : No
Forced                                   : No

Text #1
ID                                       : 4
Format                                   : UTF-8
Codec ID                                 : S_TEXT/UTF8
Codec ID/Info                            : UTF-8 Plain Text
Title                                    : Full
Language                                 : Russian
Default                                  : No
Forced                                   : No

Text #2
ID                                       : 5
Format                                   : UTF-8
Codec ID                                 : S_TEXT/UTF8
Codec ID/Info                            : UTF-8 Plain Text
Title                                    : SDH
Language                                 : Russian
Default                                  : No
Forced                                   : No

Text #3
ID                                       : 6
Format                                   : UTF-8
Codec ID                                 : S_TEXT/UTF8
Codec ID/Info                            : UTF-8 Plain Text
Language                                 : English
Default                                  : No
Forced                                   : No

Menu
00:00:00.000                             : en:1
00:04:49.174                             : en:2
00:10:49.742                             : en:3
00:17:46.366                             : en:4
00:23:51.689                             : en:5
00:29:58.806                             : en:6
00:33:03.740                             : en:7
00:37:07.984                             : en:8
00:43:41.585                             : en:9
00:50:46.009                             : en:10
00:55:01.389                             : en:11
00:59:47.133                             : en:12
01:06:25.906                             : en:13
01:14:30.765                             : en:14
01:18:25.082                             : en:15
01:23:06.571                             : en:16
01:28:03.326                             : en:17
01:33:09.548                             : en:18
01:37:12.415                             : en:19
01:44:37.860                             : en:20
01:47:46.006                             : en:21




Скриншоты:
[+] Всего файлов в раздаче - 1:
The.Lion.King.2019.BDRip.720p.ExKinoRay.mkv4.71 GB

Показать еще раздачи по запросу король:
2019-12-01 U Король Лев / The Lion King (2019) BDRip 720p от Scarabey | Лицензия 5.66 GB ↑ 51 ↓ 5
2019-11-30 U Король Лев / The Lion King (2019) HDRip от Scarabey | Лицензия 1К745.00 MB ↑ 65 ↓ 7
2019-11-29 U Король Лев / The Lion King (2019) HDRip от Scarabey | Лицензия 1.44 GB ↑ 194 ↓ 5
2019-11-28 U Король Лев / The Lion King (2019) BDRip-HEVC 1080p от HEVC-CLUB | Лицензия 7.75 GB ↑ 27 ↓ 8
2019-11-27 U Король Лев / The Lion King (2019) BDRip 720p от k.e.n & MegaPeer | Лицензия 1К4.37 GB ↑ 57 ↓ 26
2019-11-27 U Король Лев / The Lion King (2019) BDRip от MegaPeer | Лицензия 2.18 GB ↑ 81 ↓ 35
2019-11-27 U Король Лев / The Lion King (2019) BDRip 1080p от селезень | Лицензия 15.83 GB ↑ 62 ↓ 48

Отзывы
Зарегистрируйтесь чтобы добавить комментарий.
Обратная связь
Copyleft ©