↑↓torrent.by
Поиск
Логин: Регистрация
Пароль: Восстановить пароль

Ирландец / The Irishman (2019) WEBRip-AVC | D

Скачать irlandec-the-irishman-2019-webrip-avc-d.torrent
U Магнитная ссылка Размер: 2.92 GB Раздают: 342 Качают: 155 Добавлен: 2019-11-27 17:19:50
Ирландец / The Irishman (2019) WEBRip-AVC | D

Название: Ирландец
Оригинальное название: The Irishman
Год выхода: 2019
Жанр: Драма, криминал, биография
Режиссер: Мартин Скорсезе
В ролях: Роберт Де Ниро, Анна Пэкуин, Аль Пачино, Джо Пеши, Алекса Палладино, Джесси Племонс, Харви Кейтель, Бобби Каннавале, Стивен Грэм, Джек Хьюстон, Доменик Ломбардоззи, Кэтрин Нардуччи, Рэй Романо, Себастьян Манискалко, Джейк Хоффман

О фильме:
Фрэнк Ширан, носивший кличку Ирландец был, на первый взгляд, обычным американским обывателем. Примерный семьянин с женой и четырьмя детьми, бывший ветеран войны, любитель умеренной выпивки. Но под внешней маской скрывался человек, родившийся в Ирландии в семье с суровым отцом, помешанным на боксе. Человек, который провел на войне столько дней, что разучился нормально спать и нормально жить. Его тяга к спиртному была прямым следствием посттравматического синдрома, от которого бывшего солдата не могли спасти никакие семейные радости. Именно этот человек на старости лет сделает признание в том, что убил свыше 30 важных представителей мафии.

Страна: США
Студия: Fabrica de Cine, STX Entertainment, Sikelia Productions, Tribeca Productions
Продолжительность: 03:29:26
Перевод: Дублированный | Пифагор

Файл
Кодек: AVC
Качество: WEBRip-AVC
Видео: MPEG-4 AVC, 1100 Kбит/с, 720x388, 24.000 кадр/с
Звук: ► Без Рекламы!
Аудио #1: Русский (АС3, 6 ch, 448 Кбит/с, 48.0 KHz) Профессиональный (дублированный) Пифагор
Аудио #2: Английский (АС3, 6 ch, 448 Кбит/с, 48.0 KHz)
Субтитры: Русские (Forced, Full), английские
Трейлер




[+] MediaInfo

General
Unique ID                      : 246007820704528906423714211116104871344 (0xB91362021E67A004B25DFEEE668CEDB0)
Complete name                  : The.Irishman.2019.WEBRip.x264-AVC.mkv
Format                         : Matroska
Format version                 : Version 4
File size                      : 2.92 GiB
Duration                       : 3 h 29 min
Overall bit rate               : 1 999 kb/s
Encoded date                   : UTC 2019-11-27 13:50:03
Writing application            : mkvmerge v7.1.0 ('Good Love') 64bit built on Jul 27 2014 13:06:55
Writing library                : libebml v1.3.0 + libmatroska v1.4.1

Video
ID                             : 1
Format                         : AVC
Format/Info                    : Advanced Video Codec
Format profile                 : High@L3.1
Format settings                : CABAC / 5 Ref Frames
Format settings, CABAC         : Yes
Format settings, Reference fra : 5 frames
Codec ID                       : V_MPEG4/ISO/AVC
Duration                       : 3 h 29 min
Bit rate                       : 1 100 kb/s
Width                          : 720 pixels
Height                         : 388 pixels
Display aspect ratio           : 1.85:1
Original display aspect ratio  : 1.85:1
Frame rate mode                : Constant
Frame rate                     : 24.000 FPS
Color space                    : YUV
Chroma subsampling             : 4:2:0
Bit depth                      : 8 bits
Scan type                      : Progressive
Bits/(Pixel*Frame)             : 0.164
Stream size                    : 1.61 GiB (55%)
Writing library                : x264 core 152 r2851M ba24899
Encoding settings              : cabac=1 / ref=5 / deblock=1:-1:-1 / analyse=0x3:0x113 / me=umh / subme=9 / psy=1 / psy_rd=1.00:0.15 / mixed_ref=1 / me_range=16 / chroma_me=1 / trellis=2 / 8x8dct=1 / cqm=0 / deadzone=21,11 / fast_pskip=1 / chroma_qp_offset=-3 / threads=24 / lookahead_threads=2 / sliced_threads=0 / nr=0 / decimate=1 / interlaced=0 / bluray_compat=0 / constrained_intra=0 / bframes=3 / b_pyramid=2 / b_adapt=2 / b_bias=0 / direct=3 / weightb=1 / open_gop=0 / weightp=2 / keyint=250 / keyint_min=24 / scenecut=40 / intra_refresh=0 / rc_lookahead=50 / rc=2pass / mbtree=1 / bitrate=1100 / ratetol=1.0 / qcomp=0.60 / qpmin=0 / qpmax=69 / qpstep=4 / cplxblur=20.0 / qblur=0.5 / ip_ratio=1.40 / aq=1:1.00
Language                       : English
Default                        : Yes
Forced                         : No

Audio #1
ID                             : 2
Format                         : AC-3
Format/Info                    : Audio Coding 3
Commercial name                : Dolby Digital
Codec ID                       : A_AC3
Duration                       : 3 h 29 min
Bit rate mode                  : Constant
Bit rate                       : 448 kb/s
Channel(s)                     : 6 channels
Channel layout                 : L R C LFE Ls Rs
Sampling rate                  : 48.0 kHz
Frame rate                     : 31.250 FPS (1536 SPF)
Compression mode               : Lossy
Stream size                    : 671 MiB (22%)
Language                       : Russian
Service kind                   : Complete Main
Default                        : Yes
Forced                         : No

Audio #2
ID                             : 3
Format                         : AC-3
Format/Info                    : Audio Coding 3
Commercial name                : Dolby Digital
Codec ID                       : A_AC3
Duration                       : 3 h 29 min
Bit rate mode                  : Constant
Bit rate                       : 448 kb/s
Channel(s)                     : 6 channels
Channel layout                 : L R C LFE Ls Rs
Sampling rate                  : 48.0 kHz
Frame rate                     : 31.250 FPS (1536 SPF)
Compression mode               : Lossy
Stream size                    : 671 MiB (22%)
Language                       : English
Service kind                   : Complete Main
Default                        : No
Forced                         : No

Text #1
ID                             : 4
Format                         : UTF-8
Codec ID                       : S_TEXT/UTF8
Codec ID/Info                  : UTF-8 Plain Text
Duration                       : 3 h 28 min
Bit rate                       : 10 b/s
Count of elements              : 215
Stream size                    : 15.4 KiB (0%)
Title                          : Forced
Language                       : Russian
Default                        : Yes
Forced                         : No

Text #2
ID                             : 5
Format                         : UTF-8
Codec ID                       : S_TEXT/UTF8
Codec ID/Info                  : UTF-8 Plain Text
Duration                       : 3 h 28 min
Bit rate                       : 96 b/s
Count of elements              : 2973
Stream size                    : 147 KiB (0%)
Title                          : Full
Language                       : Russian
Default                        : No
Forced                         : No

Text #3
ID                             : 6
Format                         : UTF-8
Codec ID                       : S_TEXT/UTF8
Codec ID/Info                  : UTF-8 Plain Text
Duration                       : 57 s 288 ms
Bit rate                       : 47 b/s
Count of elements              : 17
Stream size                    : 343 Bytes (0%)
Title                          : Forced
Language                       : English
Default                        : No
Forced                         : No

Text #4
ID                             : 7
Format                         : UTF-8
Codec ID                       : S_TEXT/UTF8
Codec ID/Info                  : UTF-8 Plain Text
Duration                       : 3 h 16 min
Bit rate                       : 69 b/s
Count of elements              : 2927
Stream size                    : 101 KiB (0%)
Title                          : Full
Language                       : English
Default                        : No
Forced                         : No



Скриншоты:
[+] Всего файлов в раздаче - 1:
The.Irishman.2019.WEBRip.x264-AVC.mkv2.92 GB

Показать еще раздачи по запросу ирландец:
2019-12-20 U Ирландец / The Irishman (2019) WEB-DL 720p | NewStudio, Jaskier 6.49 GB ↑ 63 ↓ 38
2019-12-11 U OST - Ирландец / The Irishman (2019) MP3 139.32 MB ↑ 107 ↓ 13
2019-12-09 U Ирландец / The Irishman (2019) WEB-DLRip-AVC от ExKinoRay | P, A 4.06 GB ↑ 119 ↓ 36
2019-12-09 U Ирландец / The Irishman (2019) WEB-DL 1080p | D, P, A 13.88 GB ↑ 112 ↓ 56
2019-11-30 U Ирландец / The Irishman (2019) WEB-DLRip | КПК | D 746.80 MB ↑ 121 ↓ 25
2019-11-30 U Ирландец / The Irishman (2019) WEB-DLRip от Scarabey | Пифагор 1.45 GB ↑ 190 ↓ 49
2019-11-29 U Ирландец / The Irishman (2019) UHD WEB-DL 2160p от селезень | 4K | HDR | D 27.19 GB ↑ 252 ↓ 321

Отзывы
Зарегистрируйтесь чтобы добавить комментарий.
Обратная связь
Copyleft ©