↑↓Torrent.by
Поиск
Логин: Регистрация
Пароль: Восстановить пароль

Эверест / Abominable (2019) WEB-DL 1080p от селезень | iTunes

Скачать everest-abominable-2019-web-dl-1080p-ot-selezen-itunes.torrent
U Магнитная ссылка Размер: 3.73 GB Раздают: 162 Качают: 48 Добавлен: 2019-11-28 04:31:31
Эверест / Abominable (2019) WEB-DL 1080p от селезень | iTunes

Название: Эверест
Оригинальное название: Abominable
Год выхода: 2019
Жанр: Мультфильм, фэнтези, комедия, приключения, семейный, полнометражный
Режиссер: Джилл Калтон, Тодд Вилдерман
В ролях: Хлоя Беннет, Альберт Цай, Тензинг Норгай Трэйнор, Джозеф Иццо, Эдди Иззард, Сара Полсон, Цай Чинь, Мишель Вонг, Рич Дитль, Джеймс Хонг

О фильме: Путешествие на самую высокую точку мира? Что может быть круче! Так решает Лу, когда случайно находит огромное, но очень милое чудовище посреди шумного мегаполиса. Пусть их преследуют ученые из сверхсекретной лаборатории, зато её новый друг умеет смешить и творить чудеса. Лу уверена, что поможет дружелюбному йети вернуться домой - на Эверест.

Страна: Китай, США
Студия: DreamWorks Animation, Pearl Studio
Продолжительность: 01:37:13
Перевод: Дублированный | iTunes

Качество: WEB-DL 1080p
Видео: MPEG-4 AVC, 1916x1032, 5106 Kbit/s, 23.976 fps
Аудио: 48 kHz, AC3, 5.1, 384 Kbps | iTunes | RUS |
Субтитры: Русские (форсированные, хардсаб)

Релиз:


[+] MI
General
Unique ID                   : 58331876022446751648764860719342402322 (0x2BE24F885B5EC5833D857B58D18DBB12)
Complete name               : F:Video111Abominable.2019.WEB-DL.1080p.seleZen.mkv
Format                      : Matroska
Format version              : Version 4
File size                   : 3.73 GiB
Duration                    : 1 h 37 min
Overall bit rate            : 5 492 kb/s
Movie name                  : Abominable 2019 from селезень
Encoded date                : UTC 2019-11-27 19:41:55
Writing application         : mkvmerge v40.0.0 ('Old Town Road + Pony') 64-bit
Writing library             : libebml v1.3.9 + libmatroska v1.5.2
Cover                       : Yes
Attachments                 : cover.jpg

Video
ID                          : 1
Format                      : AVC
Format/Info                 : Advanced Video Codec
Format profile              : High@L4
Format settings             : CABAC / 4 Ref Frames
Format settings, CABAC      : Yes
Format settings, Reference  : 4 frames
Codec ID                    : V_MPEG4/ISO/AVC
Duration                    : 1 h 37 min
Bit rate                    : 5 106 kb/s
Width                       : 1 916 pixels
Height                      : 1 032 pixels
Display aspect ratio        : 1.85:1
Frame rate mode             : Constant
Frame rate                  : 23.976 (23976/1000) FPS
Color space                 : YUV
Chroma subsampling          : 4:2:0
Bit depth                   : 8 bits
Scan type                   : Progressive
Bits/(Pixel*Frame)          : 0.108
Stream size                 : 3.47 GiB (93%)
Language                    : English
Default                     : Yes
Forced                      : No
Color range                 : Limited
Color primaries             : BT.709
Transfer characteristics    : BT.709
Matrix coefficients         : BT.709

Audio
ID                          : 2
Format                      : AC-3
Format/Info                 : Audio Coding 3
Commercial name             : Dolby Digital
Codec ID                    : A_AC3
Duration                    : 1 h 37 min
Bit rate mode               : Constant
Bit rate                    : 384 kb/s
Channel(s)                  : 6 channels
Channel layout              : L R C LFE Ls Rs
Sampling rate               : 48.0 kHz
Frame rate                  : 31.250 FPS (1536 SPF)
Bit depth                   : 16 bits
Compression mode            : Lossy
Stream size                 : 267 MiB (7%)
Title                       : iTunes
Language                    : Russian
Service kind                : Complete Main
Default                     : Yes
Forced                      : Yes

Menu
00:00:00.000                : en:1
00:04:12.836                : en:2
00:09:11.885                : en:3
00:13:43.239                : en:4
00:16:14.598                : en:5
00:21:35.752                : en:6
00:25:03.459                : en:7
00:29:31.435                : en:8
00:33:58.452                : en:9
00:36:44.784                : en:10
00:41:54.009                : en:11
00:46:31.703                : en:12
00:50:43.329                : en:13
00:56:32.553                : en:14
01:01:41.528                : en:15
01:06:34.195                : en:16
01:11:45.422                : en:17
01:15:27.352                : en:18
01:20:42.542                : en:19
01:26:45.404                : en:20



Скриншоты:
[+] Всего файлов в раздаче - 1:
Abominable.2019.WEB-DL.1080p.seleZen.mkv3.73 GB

Показать еще раздачи по запросу эверест:
2019-12-14 U Эверест / Abominable (2019) BDRip-AVC от OlLanDGroup | iTunes 1.67 GB ↑ 113 ↓ 28
2019-12-12 U Эверест / Abominable (2019) HDRip от Scarabey | iTunes 1.40 GB ↑ 59 ↓ 10
2019-12-11 U Эверест / Abominable (2019) BDRip-AVC от ExKinoRay | iTunes 2.40 GB ↑ 65 ↓ 22
2019-12-10 U Эверест / Єті / Abominable (2019) WEB-DLRip | D | UKR 1К1.47 GB ↑ 45 ↓ 5
2019-12-10 U Эверест / Abominable (2019) BDRip 1080p | iTunes 1К10.73 GB ↑ 45 ↓ 20
2019-12-09 U Эверест / Abominable (2019) BDRip 720p от селезень | iTunes 4.43 GB ↑ 123 ↓ 61
2019-12-09 U Эверест / Abominable (2019) BDRip от MegaPeer | iTunes 1.42 GB ↑ 329 ↓ 70

Отзывы
Зарегистрируйтесь чтобы добавить комментарий.
Обратная связь
Copyleft ©