↑↓Torrent.by
Поиск
Логин: Регистрация
Пароль: Восстановить пароль

Ленин. Неизбежность (2019) WEBRip

Скачать lenin-neizbezhnost-2019-webrip.torrent
U Магнитная ссылка Размер: 1.45 GB Раздают: 151 Качают: 83 Добавлен: 2019-11-28 04:31:53
Ленин. Неизбежность (2019) WEBRip

Название: Ленин. Неизбежность
Год выхода: 2019
Жанр: Драма, история, биография
Страна: Россия
Перевод: Не  требуется
Продолжительность: 01:53:55
Режиссер: Владимир Хотиненко
В ролях: Евгений Миронов, Фёдор Бондарчук, Максим Матвеев, Александр Балуев, Дарья Екамасова, Виктория Исакова, Паулина Андреева и др.

О фильме: Уже почти три года идет Первая мировая война — самая жестокая и кровавая в истории человечества. Владимир Ленин долгое время находится в иммиграции и недавно переехал в Цюрих. Посвятивший всю свою жизнь подготовке революции, Ленин упустил её начало и теперь ищет любую возможность вернуться в Россию, чтобы взять ситуацию в свои руки. А вариантов немного и в конце концов остается самый невероятный — пересечь территорию воюющей с Россией Германии на поезде…

Файл
Формат: AVI
Качество: WEBRip
Видео: Xvid 73, 720x304, 1425 kbps, 24,000 fps
Звук: русский, AC3, 5.1 ch, 48 kHz, 384 kbps
Субтитры: русские (форс. вшитые)



[+] MI
Общее
Полное имя                               : G:Torrent2LeninWEBRip.avi
Формат                                   : AVI
Формат/Информация                        : Audio Video Interleave
Профиль формата                          : OpenDML
Размер файла                             : 1,45 Гбайт
Продолжительность                        : 1 ч. 53 м.
Общий поток                              : 1821 Кбит/сек
Программа кодирования                    : XviD4PSP 6.0 / 53.6.0

Видео
Идентификатор                            : 0
Формат                                   : MPEG-4 Visual
Профиль формата                          : Advanced Simple@L5
Настройки формата                        : BVOP1 / Custom Matrix
Параметр BVOP формата                    : 1
Параметр QPel формата                    : Нет
Параметр GMC формата                     : Без точки перехода
Параметр матрицы формата                 : Выборочная
Идентификатор кодека                     : XVID
Идентификатор кодека/Подсказка           : XviD
Продолжительность                        : 1 ч. 53 м.
Битрейт                                  : 1425 Кбит/сек
Ширина                                   : 720 пикселей
Высота                                   : 304 пикселя
Соотношение сторон                       : 2,35:1
Частота кадров                           : 24,000 кадра/сек
Цветовое пространство                    : YUV
Субдискретизация насыщенности            : 4:2:0
Битовая глубина                          : 8 бит
Тип развёртки                            : Прогрессивная
Метод сжатия                             : С потерями
Бит/(Пиксели*Кадры)                      : 0.271
Размер потока                            : 1,13 Гбайт (78%)
Библиотека кодирования                   : XviD 73

Аудио
Идентификатор                            : 1
Формат                                   : AC-3
Формат/Информация                        : Audio Coding 3
Параметр Endianness формата              : Big
Идентификатор кодека                     : 2000
Продолжительность                        : 1 ч. 53 м.
Вид битрейта                             : Постоянный
Битрейт                                  : 384 Кбит/сек
Каналы                                   : 6 каналов
Расположение каналов                     : Front: L C R, Side: L R, LFE
Частота                                  : 48,0 КГц
Частота кадров                           : 31,250 кадров/сек (1536 SPF)
Битовая глубина                          : 16 бит
Метод сжатия                             : С потерями
Размер потока                            : 313 Мбайт (21%)
Выравнивание                             : Соединение по промежуткам
Продолжительность промежутка             : 32  мс. (0,77 видеокадр)




Скриншоты:
[+] Всего файлов в раздаче - 1:
LeninWEBRip.avi1.45 GB

Похожие раздачи по запросу - ленин:
2019-11-29 U Ленин. Неизбежность (2019) WEB-DLRip-AVC от Files-x 2.04 GB ↑ 74 ↓ 20
2019-11-28 U Ленин. Неизбежность (2019) WEB-DLRip-AVC 744.22 MB ↑ 144 ↓ 29
2019-11-28 U Ленин. Неизбежность (2019) WEB-DLRip от Portablius 1К746.49 MB ↑ 167 ↓ 51
2019-11-28 U Ленин. Неизбежность (2019) WEB-DL 720p от ExKinoRay 2.34 GB ↑ 294 ↓ 101
2019-11-28 U Ленин. Неизбежность (2019) WEBRip 1080p 4.37 GB ↑ 34 ↓ 51
2016-03-11 U В. И. Ленин - Полное собрание сочинений (1893-1922) (1973) FB2 109.98 MB ↑ 16578 ↓ 526

Отзывы
Зарегистрируйтесь чтобы добавить комментарий.
Обратная связь
Copyleft ©