↑↓Torrent.by
Поиск
Логин: Регистрация
Пароль: Восстановить пароль

Ленин. Неизбежность (2019) WEBRip 1080p

Скачать lenin-neizbezhnost-2019-webrip-1080p.torrent
U Магнитная ссылка Размер: 4.37 GB Раздают: 34 Качают: 51 Добавлен: 2019-11-28 04:32:14
Ленин. Неизбежность (2019) WEBRip 1080p

Название: Ленин. Неизбежность
Год выхода: 2019
Жанр: Драма, история, биография
Страна: Россия
Перевод: Не  требуется
Продолжительность: 01:53:55
Режиссер: Владимир Хотиненко
В ролях: Евгений Миронов, Фёдор Бондарчук, Максим Матвеев, Александр Балуев, Дарья Екамасова, Виктория Исакова, Паулина Андреева и др.

О фильме: Уже почти три года идет Первая мировая война — самая жестокая и кровавая в истории человечества. Владимир Ленин долгое время находится в иммиграции и недавно переехал в Цюрих. Посвятивший всю свою жизнь подготовке революции, Ленин упустил её начало и теперь ищет любую возможность вернуться в Россию, чтобы взять ситуацию в свои руки. А вариантов немного и в конце концов остается самый невероятный — пересечь территорию воюющей с Россией Германии на поезде…

Файл
Качество: WEBRip 1080p
Видео: MPEG-4 AVC, 1920x804, 5120 kbps, 24,000 fps
Звук: русский, AC3, 5.1 ch, 48 kHz, 384 kbps
Субтитры: русские (форс. вшитые)

Релиз:


[+] MI
Общее
Уникальный идентификатор                 : 196826904415987629791579503114005197255 (0x94137B9FD4C4E0208DE4EFE7109F31C7)
Полное имя                               : G:Torrent2LeninWEBRip1080p.mkv
Формат                                   : Matroska
Версия формата                           : Version 4 / Version 2
Размер файла                             : 4,37 Гбайт
Продолжительность                        : 1 ч. 53 м.
Общий поток                              : 5497 Кбит/сек
Дата кодирования                         : UTC 2019-11-27 23:12:54
Программа кодирования                    : mkvmerge v9.5.0 ('Quiet Fire') 64bit
Библиотека кодирования                   : libebml v1.3.4 + libmatroska v1.4.5

Видео
Идентификатор                            : 1
Формат                                   : AVC
Формат/Информация                        : Advanced Video Codec
Профиль формата                          : High@L4
Настройки формата                        : CABAC / 4 Ref Frames
Параметр CABAC формата                   : Да
Параметр RefFrames формата               : 4 кадра
Идентификатор кодека                     : V_MPEG4/ISO/AVC
Продолжительность                        : 1 ч. 53 м.
Битрейт                                  : 5120 Кбит/сек
Ширина                                   : 1920 пикселей
Высота                                   : 804 пикселя
Соотношение сторон                       : 2,40:1
Режим частоты кадров                     : Постоянный
Частота кадров                           : 24,000 кадра/сек
Цветовое пространство                    : YUV
Субдискретизация насыщенности            : 4:2:0
Битовая глубина                          : 8 бит
Тип развёртки                            : Прогрессивная
Бит/(Пиксели*Кадры)                      : 0.138
Размер потока                            : 4,07 Гбайт (93%)
Библиотека кодирования                   : x264 core 148
Настройки программы                      : cabac=1 / ref=3 / deblock=1:0:0 / analyse=0x3:0x113 / me=hex / subme=7 / psy=1 / psy_rd=1.00:0.00 / mixed_ref=1 / me_range=16 / chroma_me=1 / trellis=1 / 8x8dct=1 / cqm=0 / deadzone=21,11 / fast_pskip=1 / chroma_qp_offset=-2 / threads=25 / lookahead_threads=4 / sliced_threads=0 / nr=0 / decimate=1 / interlaced=0 / bluray_compat=0 / constrained_intra=0 / bframes=6 / b_pyramid=2 / b_adapt=1 / b_bias=0 / direct=1 / weightb=1 / open_gop=0 / weightp=2 / keyint=48 / keyint_min=25 / scenecut=0 / intra_refresh=0 / rc_lookahead=40 / rc=2pass / mbtree=1 / bitrate=5120 / ratetol=1.0 / qcomp=0.60 / qpmin=0 / qpmax=69 / qpstep=4 / cplxblur=20.0 / qblur=0.5 / vbv_maxrate=7680 / vbv_bufsize=20480 / nal_hrd=none / filler=0 / ip_ratio=1.40 / aq=1:1.00
Язык                                     : Russian
Default                                  : Да
Forced                                   : Нет

Аудио
Идентификатор                            : 2
Формат                                   : AC-3
Формат/Информация                        : Audio Coding 3
Параметр Endianness формата              : Big
Идентификатор кодека                     : A_AC3
Продолжительность                        : 1 ч. 53 м.
Вид битрейта                             : Постоянный
Битрейт                                  : 384 Кбит/сек
Каналы                                   : 6 каналов
Расположение каналов                     : Front: L C R, Side: L R, LFE
Частота                                  : 48,0 КГц
Частота кадров                           : 31,250 кадров/сек (1536 SPF)
Битовая глубина                          : 16 бит
Метод сжатия                             : С потерями
Размер потока                            : 313 Мбайт (7%)
Язык                                     : Russian
Default                                  : Да
Forced                                   : Нет




Скриншоты:
[+] Всего файлов в раздаче - 1:
LeninWEBRip1080p.mkv4.37 GB

Похожие раздачи по запросу - ленин:
2019-11-29 U Ленин. Неизбежность (2019) WEB-DLRip-AVC от Files-x 2.04 GB ↑ 75 ↓ 20
2019-11-28 U Ленин. Неизбежность (2019) WEB-DLRip-AVC 744.22 MB ↑ 145 ↓ 29
2019-11-28 U Ленин. Неизбежность (2019) WEB-DLRip от Portablius 1К746.49 MB ↑ 168 ↓ 51
2019-11-28 U Ленин. Неизбежность (2019) WEB-DL 720p от ExKinoRay 2.34 GB ↑ 294 ↓ 101
2019-11-28 U Ленин. Неизбежность (2019) WEBRip 1.45 GB ↑ 153 ↓ 83
2016-03-11 U В. И. Ленин - Полное собрание сочинений (1893-1922) (1973) FB2 109.98 MB ↑ 16582 ↓ 526

Отзывы
Зарегистрируйтесь чтобы добавить комментарий.
Обратная связь
Copyleft ©