↑↓Torrent.by
Поиск
Логин: Регистрация
Пароль: Восстановить пароль

Неразгаданные тайны грибов (2019) DVB

Скачать nerazgadannye-tayny-gribov-2019-dvb.torrent
U Магнитная ссылка Размер: 932.40 MB Раздают: 75 Качают: 20 Добавлен: 2019-11-28 04:44:24
Неразгаданные тайны грибов (2019) DVB

Название: Неразгаданные тайны грибов
Год выхода: 2019
Жанр: Документальный, познавательный
Режиссер: Александр Сидоров

О фильме:
Человечество на протяжении всего своего существования соприкасается с миром грибов, где царят иные, неведомые нам законы. Ученые не раз выдвигали теорию, что грибы — это не флора, а фауна. А некоторые из них утверждают, что грибная общность — это настоящая цивилизация со своим коллективным разумом, управляющая всем миром. Грибы могут выживать в вакууме и при чрезвычайно низких температурах; корпус споры является одним из самых плотных материалов в природе, который может сравниться с металлом; споры грибов идеально подходят для космических путешествий. Грибы спокойно пережили ледниковый период, когда все другие животные и растения вымерли.
Может быть, эти удивительные создания ждали появления человека, чтобы породниться с ним? Но, возможно, что-то не заладилось, и они попали на стол к оголодавшему предку Homo sapiens? Или просто их время еще не пришло?

Страна: Россия
Студия: ООО "Телекомпания "Кетцаль"
Продолжительность: 00:52:01
Перевод: Не требуется

Файл
Кодек: AVC/H.264
Качество: DVB
Видео: 720x576@1047x576 (16:9) AVC (H.264) Main@L3.0, ~ 2264 kbps, 25fps
Звук: Русский 48 kHz, MPEG Layer 2, 2 ch, ~192.00 kbps avg
Субтитры: Русские, отключаемые

Семпл

Релиз от: kyba
[+] MediaInfo
Complete name               : F:НаладкиНеразгаданные тайны грибов.mkv
Format                      : Matroska
Format version              : Version 4
File size                   : 932 MiB
Duration                    : 52 min 1 s
Overall bit rate            : 2 505 kb/s
Encoded date                : UTC 2019-11-27 13:01:30
Writing application         : mkvmerge v6.6.0 ('The Edge Of The In Between') built on Dec  1 2013 17:55:00
Writing library             : libebml v1.3.0 + libmatroska v1.4.1

Video
ID                          : 1
Format                      : AVC
Format/Info                 : Advanced Video Codec
Format profile              : Main@L3
Format settings             : CABAC / 4 Ref Frames
Format settings, CABAC      : Yes
Format settings, Reference  : 4 frames
Codec ID                    : V_MPEG4/ISO/AVC
Duration                    : 52 min 1 s
Bit rate                    : 2 264 kb/s
Width                       : 720 pixels
Height                      : 576 pixels
Display aspect ratio        : 16:9
Frame rate mode             : Constant
Frame rate                  : 25.000 FPS
Standard                    : Component
Color space                 : YUV
Chroma subsampling          : 4:2:0
Bit depth                   : 8 bits
Scan type                   : Interlaced
Scan type, store method     : Separated fields
Scan order                  : Top Field First
Bits/(Pixel*Frame)          : 0.218
Stream size                 : 842 MiB (90%)
Default                     : Yes
Forced                      : No
Color range                 : Limited
Color primaries             : BT.601 PAL
Transfer characteristics    : BT.470 System B/G
Matrix coefficients         : BT.470 System B/G

Audio
ID                          : 2
Format                      : MPEG Audio
Format version              : Version 1
Format profile              : Layer 2
Codec ID                    : A_MPEG/L2
Codec ID/Hint               : MP2
Duration                    : 52 min 1 s
Bit rate mode               : Constant
Bit rate                    : 192 kb/s
Channel(s)                  : 2 channels
Sampling rate               : 48.0 kHz
Compression mode            : Lossy
Stream size                 : 71.5 MiB (8%)
Language                    : Russian
Default                     : Yes
Forced                      : No

Text
ID                          : 3
Format                      : UTF-8
Codec ID                    : S_TEXT/UTF8
Codec ID/Info               : UTF-8 Plain Text
Title                       : СВ-Дубль
Language                    : Russian
Default                     : No
Forced                      : No



Скриншоты:
[+] Всего файлов в раздаче - 1:
Неразгаданные тайны грибов.mkv932.40 MB

Отзывы
Зарегистрируйтесь чтобы добавить комментарий.
Обратная связь
Copyleft ©