↑↓torrent.by
Поиск
Логин: Регистрация
Пароль: Восстановить пароль

Арахисовый сокол / The Peanut Butter Falcon (2019) BDRemux 1080p | A

Скачать arahisovyy-sokol-the-peanut-butter-falcon-2019-bdremux-1080p-a.torrent
U Магнитная ссылка Размер: 19.38 GB Раздают: 35 Качают: 16 Добавлен: 2019-11-28 04:44:52
Арахисовый сокол / The Peanut Butter Falcon (2019) BDRemux 1080p | A

Название: Арахисовый сокол
Оригинальное название: The Peanut Butter Falcon
Год выхода: 2019
Жанр: Драма, комедия, приключения
Режиссер: Тайлер Нилсон, Майк Шварц
В ролях: Шайа ЛаБаф, Дакота Джонсон, Зак Готтзаген, Джон Хоукс, Томас Хейден Чёрч, Брюс Дерн, Джон Бернтал, Джэйк Робертс, Мик Фоли, Ракель Аврора, Майкл Бертольд, Деджа Ди, Марк Хелмс, Карен Б. Грир

О фильме:
Большое путешествие начинается с шага, а легендарное — с полета. Вылетев в окно, герой очутился в мире, где чего-то не хватало. Его новому другу — крупной суммы денег. Паре головорезов — головы друга. Молодой медсестре — любви. А ему — путешествий на плоту, погонь, пылающих костров и немного арахисового масла.

Страна: США
Студия: Armory Films, 1993, Lucky Treehouse
Продолжительность: 01:36:56
Перевод: Авторский | [BadBajo]

Файл
Кодек: x.264
Качество: BDRemux 1080p
Видео: MPEG-4 AVC, 23.0 Mбит/с, 1920x1080, 23.976 кадр/с
Звук: ► Без Рекламы!
Аудио #1: Русский (DTS, 6 ch, 1509 Кбит/с, 48.0 KHz) Авторский (одноголосый, закадровый) А. Важенин [BadBajo]
Аудио #2: Русский (АС3, 6 ch, 448 Кбит/с, 48.0 KHz) Авторский (одноголосый, закадровый) А. Важенин [BadBajo]
Аудио #3: Английский (DTS-HD MA, 6 ch, 3656 Кбит/с, 48.0 KHz)
Субтитры: Aнглийские
Трейлер




[+] MediaInfo
Источник: The.Peanut.Butter.Falcon.2019.1080p.BluRay.REMUX.AVC.DTS-HD.MA.5.1-FGT
General
Unique ID                      : 207138685208700944797381593553845720814 (0x9BD575AB853A054C8DB720A7CDE196EE)
Complete name                  : The.Peanut.Butter.Falcon.2019..BluRay.REMUX.1080p.mkv
Format                         : Matroska
Format version                 : Version 4
File size                      : 19.4 GiB
Duration                       : 1 h 36 min
Overall bit rate mode          : Variable
Overall bit rate               : 28.6 Mb/s
Encoded date                   : UTC 2019-11-27 00:34:54
Writing application            : mkvmerge v7.1.0 ('Good Love') 64bit built on Jul 27 2014 13:06:55
Writing library                : libebml v1.3.0 + libmatroska v1.4.1

Video
ID                             : 1
Format                         : AVC
Format/Info                    : Advanced Video Codec
Format profile                 : High@L4.1
Format settings                : CABAC / 4 Ref Frames
Format settings, CABAC         : Yes
Format settings, Reference fra : 4 frames
Codec ID                       : V_MPEG4/ISO/AVC
Duration                       : 1 h 36 min
Bit rate mode                  : Variable
Bit rate                       : 23.0 Mb/s
Maximum bit rate               : 35.0 Mb/s
Width                          : 1 920 pixels
Height                         : 1 080 pixels
Display aspect ratio           : 16:9
Frame rate mode                : Constant
Frame rate                     : 23.976 (24000/1001) FPS
Standard                       : NTSC
Color space                    : YUV
Chroma subsampling             : 4:2:0
Bit depth                      : 8 bits
Scan type                      : Progressive
Bits/(Pixel*Frame)             : 0.463
Stream size                    : 15.6 GiB (80%)
Language                       : English
Default                        : Yes
Forced                         : No
Color range                    : Limited
Color primaries                : BT.709
Transfer characteristics       : BT.709
Matrix coefficients            : BT.709

Audio #1
ID                             : 2
Format                         : DTS
Format/Info                    : Digital Theater Systems
Codec ID                       : A_DTS
Duration                       : 1 h 36 min
Bit rate mode                  : Constant
Bit rate                       : 1 510 kb/s
Channel(s)                     : 6 channels
Channel layout                 : C L R Ls Rs LFE
Sampling rate                  : 48.0 kHz
Frame rate                     : 93.750 FPS (512 SPF)
Bit depth                      : 24 bits
Compression mode               : Lossy
Stream size                    : 1.02 GiB (5%)
Title                          : DTS_1509_BadBajo
Language                       : Russian
Default                        : Yes
Forced                         : No

Audio #2
ID                             : 3
Format                         : AC-3
Format/Info                    : Audio Coding 3
Commercial name                : Dolby Digital
Codec ID                       : A_AC3
Duration                       : 1 h 36 min
Bit rate mode                  : Constant
Bit rate                       : 448 kb/s
Channel(s)                     : 6 channels
Channel layout                 : L R C LFE Ls Rs
Sampling rate                  : 48.0 kHz
Frame rate                     : 31.250 FPS (1536 SPF)
Compression mode               : Lossy
Stream size                    : 311 MiB (2%)
Title                          : AC3_448_BadBajo
Language                       : Russian
Service kind                   : Complete Main
Default                        : No
Forced                         : No

Audio #3
ID                             : 4
Format                         : DTS XLL
Format/Info                    : Digital Theater Systems
Commercial name                : DTS-HD Master Audio
Codec ID                       : A_DTS
Duration                       : 1 h 36 min
Bit rate mode                  : Variable
Bit rate                       : 3 656 kb/s
Channel(s)                     : 6 channels
Channel layout                 : C L R Ls Rs LFE
Sampling rate                  : 48.0 kHz
Frame rate                     : 93.750 FPS (512 SPF)
Bit depth                      : 24 bits
Compression mode               : Lossless
Stream size                    : 2.48 GiB (13%)
Language                       : English
Default                        : No
Forced                         : No

Text
ID                             : 5
Format                         : UTF-8
Codec ID                       : S_TEXT/UTF8
Codec ID/Info                  : UTF-8 Plain Text
Duration                       : 1 h 35 min
Bit rate                       : 67 b/s
Count of elements              : 1549
Stream size                    : 47.0 KiB (0%)
Language                       : English
Default                        : No
Forced                         : No

Menu
00:00:00.000                   : en:Chapter 01
00:08:14.243                   : en:Chapter 02
00:17:54.073                   : en:Chapter 03
00:25:26.191                   : en:Chapter 04
00:32:30.949                   : en:Chapter 05
00:42:37.555                   : en:Chapter 06
00:50:34.906                   : en:Chapter 07
00:58:02.270                   : en:Chapter 08
01:04:19.856                   : en:Chapter 09
01:13:20.396                   : en:Chapter 10
01:21:12.617                   : en:Chapter 11
01:31:09.464                   : en:Chapter 12



Скриншоты:
[+] Всего файлов в раздаче - 1:
The.Peanut.Butter.Falcon.2019..BluRay.REMUX.1080p.mkv19.38 GB

Похожие раздачи по запросу - арахисовый:
2020-01-20 U Арахисовый сокол / The Peanut Butter Falcon (2019) BDRip 720p от Scarabey | iTunes 3.61 GB ↑ 60 ↓ 20
2019-11-02 U Арахисовый сокол / The Peanut Butter Falcon (2019) HDRip от MegaPeer | BadBajo 1.46 GB ↑ 386 ↓ 99
2019-11-02 U Арахисовый сокол / The Peanut Butter Falcon (2019) BDRip 1080p | BadBajo 8.98 GB ↑ 390 ↓ 295
2019-10-31 U Арахисовый сокол / The Peanut Butter Falcon (2019) DVDRip | BadBajo 1.56 GB ↑ 338 ↓ 132

Отзывы
Зарегистрируйтесь чтобы добавить комментарий.
Обратная связь
Copyleft ©