↑↓torrent.by
Поиск
Логин: Регистрация
Пароль: Восстановить пароль

Иные / Freaks (2018) WEB-DL 1080p | iTunes

Скачать inye-freaks-2018-web-dl-1080p-itunes.torrent
U Магнитная ссылка Размер: 3.63 GB Раздают: 1763 Качают: 789 Добавлен: 2019-11-28 18:05:56
Иные / Freaks (2018) WEB-DL 1080p | iTunes

«Они выглядят как мы. Но они — не мы»

Название: Иные
Оригинальное название: Freaks
Год выхода: 2018
Жанр: Фантастика, триллер, драма
Режиссер: Зак Липовски, Адам Б. Стейн
В ролях: Эмиль Хирш, Брюс Дерн, Грейс Пак, Аманда Крю, Лекси Колкер, Ава Телек, Мишель Харрисон, Мэтти Финочио, Алекс Паунович, АрДжей Фезерстонхо

О фильме:
В уединенном домике одного из районов Лос-Анджелеса живут маленькая девочка и ее заботливый отец. Вполне нормальная семья, если не считать, что девочка одним взглядом может поднять в воздух тяжеленный шкаф, а у отца всегда наготове снятый с предохранителя пистолет. Каждый день, уходя из дома, папа запирает дочь, и категорически запрещает открывать дверь. Ей нельзя ни с кем разговаривать и не позволено даже подходить к окну. Единственное развлечение девочки: тайком наблюдать из-за занавесок за фургончиком мороженщика, который целыми днями торчит возле их дома. Играет музыка и таинственной голос призывает её отпереть дверь и полакомиться сладеньким. Малышке так хочется мороженого, но ведь папа сказал, что это смертельно опасно: никто не должен её видеть!

И вот однажды девочка нарушает запрет, и начинаются самые невероятные события, которые только можно представить.

Страна: Канада, США
Студия: Amazing, Bloomgarden Films, My Way Entertainment
Продолжительность: 01:44:45
Перевод:
• Профессиональный (полное дублирование) | iTunes

Файл
Качество: WEB-DL 1080p
Формат: MKV
Кодек: MPEG-4 AVC
Видео: 1920x818 (2,35:1), 24 fps, MPEG-4 AVC ~ 4580 Kbps avg, 0.122 bit/pixel
Аудио: AC3, 48 kHz, 6 ch, ~384.00 kbps avg | русский | iTunes


[+] Инфо-файл
Общее
Уникальный идентификатор                 : 310992165221864849591101413362543323224 (0xE9F6E98F93B68E5CB22A7390225B6858)
Полное имя                               : G:FREAKS (2018) WEB-DL 1080p.mkv
Формат                                   : Matroska
Версия формата                           : Version 4 / Version 2
Размер файла                             : 3,63 Гбайт
Продолжительность                        : 1 ч. 44 м.
Общий поток                              : 4966 Кбит/сек
Название фильма                          : Иные / Freaks (2018)
Дата кодирования                         : UTC 2019-11-28 10:07:41
Программа кодирования                    : mkvmerge v38.0.0 ('The Silent Type') 64-bit
Библиотека кодирования                   : libebml v1.3.9 + libmatroska v1.5.2
Attachments                              : 200.jpg

Видео
Идентификатор                            : 1
Формат                                   : AVC
Формат/Информация                        : Advanced Video Codec
Профиль формата                          : High@L4
Настройки формата                        : CABAC / 5 Ref Frames
Параметр CABAC формата                   : Да
Параметр RefFrames формата               : 5 кадров
Идентификатор кодека                     : V_MPEG4/ISO/AVC
Продолжительность                        : 1 ч. 44 м.
Битрейт                                  : 4580 Кбит/сек
Ширина                                   : 1920 пикселей
Высота                                   : 818 пикселей
Соотношение сторон                       : 2,35:1
Режим частоты кадров                     : Постоянный
Частота кадров                           : 24,000 кадра/сек
Цветовое пространство                    : YUV
Субдискретизация насыщенности            : 4:2:0
Битовая глубина                          : 8 бит
Тип развёртки                            : Прогрессивная
Бит/(Пиксели*Кадры)                      : 0.122
Размер потока                            : 3,35 Гбайт (92%)
Заголовок                                : FREAKS (2018) WEB-DL 1080p
Язык                                     : English
Default                                  : Да
Forced                                   : Нет
Цветовой диапазон                        : Limited
Основные цвета                           : BT.709
Характеристики трансфера                 : BT.709
Коэффициенты матрицы                     : BT.709

Аудио
Идентификатор                            : 2
Формат                                   : AC-3
Формат/Информация                        : Audio Coding 3
Идентификатор кодека                     : A_AC3
Продолжительность                        : 1 ч. 44 м.
Вид битрейта                             : Постоянный
Битрейт                                  : 384 Кбит/сек
Каналы                                   : 6 каналов
Расположение каналов                     : Front: L C R, Side: L R, LFE
Частота                                  : 48,0 КГц
Частота кадров                           : 31,250 кадров/сек (1536 SPF)
Битовая глубина                          : 16 бит
Метод сжатия                             : С потерями
Задержка видео                           : -42 мс.
Размер потока                            : 288 Мбайт (8%)
Заголовок                                : iTunes | FREAKS (2018) WEB-DL 1080p-KAZTORKA
Язык                                     : Russian
Default                                  : Да
Forced                                   : Да

Меню
00:00:00.000                             : en:Глава 1
00:08:21.000                             : en:Глава 2
00:16:57.375                             : en:Глава 3
00:25:37.333                             : en:Глава 4
00:34:05.291                             : en:Глава 5
00:42:37.374                             : en:Глава 6
00:50:42.707                             : en:Глава 7
00:59:11.998                             : en:Глава 8
01:08:18.248                             : en:Глава 9
01:16:54.080                             : en:Глава 10
01:25:16.287                             : en:Глава 11
01:33:28.744                             : en:Глава 12




Скриншоты:
[+] Всего файлов в раздаче - 1:
FREAKS (2018) WEB-DL 1080p.mkv3.63 GB

Похожие раздачи по запросу - иные:
2020-05-31 U Иные / Freaks (2018) BDRip от Twister & ExKinoRay | Лицензия 1.46 GB ↑ 65 ↓ 13
2019-12-05 U Иные / Freaks (2018) BDRip 1080p от селезень | iTunes 7.25 GB ↑ 331 ↓ 32
2019-11-28 U Иные / Freaks (2018) WEB-DLRip | iTunes 1.46 GB ↑ 1567 ↓ 500

Отзывы
Зарегистрируйтесь чтобы добавить комментарий.
Загрузите программу
  uTorrent.exe
Обратная связь
Copyleft ©