↑↓Torrent.by
Поиск
Логин: Регистрация
Пароль: Восстановить пароль

Ленин. Неизбежность (2019) WEB-DLRip-AVC

Скачать lenin-neizbezhnost-2019-web-dlrip-avc.torrent
U Магнитная ссылка Размер: 744.22 MB Раздают: 134 Качают: 29 Добавлен: 2019-11-28 18:07:04
Ленин. Неизбежность (2019) WEB-DLRip-AVC

Название: Ленин. Неизбежность
Год выхода: 2019
Жанр:  Драма, история, биография
Режиссер: Владимир Хотиненко
В ролях: Евгений Миронов, Фёдор Бондарчук, Максим Матвеев, Александр Балуев, Дарья Екамасова, Виктория Исакова, Паулина Андреева

О фильме:
Уже почти три года идет Первая мировая война — самая жестокая и кровавая в истории человечества. Владимир Ленин долгое время находится в иммиграции и недавно переехал в Цюрих. Посвятивший всю свою жизнь подготовке революции, Ленин упустил её начало и теперь ищет любую возможность вернуться в Россию, чтобы взять ситуацию в свои руки. А вариантов немного и в конце концов остается самый невероятный — пересечь территорию воюющей с Россией Германии на поезде…

Страна: Россия
Студия: Non-Stop Production
Продолжительность: 01:53:55
Язык: Русский
Субтитры: Русские (форс. вшитые)

Файл
Формат: Matroska
Качество: WEB-DLRip-AVC
Видео: 726x304 at 24.00 fps, x264, ~849 kbps, 0.160 bpp
Аудио: AAC, 2 ch, ~64 kbps - | Русский | -

***Релиз от: -=DoMiNo=-


[+] M/I
x264 [info]: frame I:1255  Avg QP:15.20  size: 35477
x264 [info]: frame P:38013 Avg QP:18.58  size:  9979
x264 [info]: frame B:124746 Avg QP:20.91  size:  2413
x264 [info]: consecutive B-frames:  2.2%  3.6%  9.7% 33.4% 13.0% 17.1% 18.9%  1.3%  0.3%  0.1%  0.1%  0.1%  0.2%

General
Format                      : Matroska
Format version              : Version 4
File size                   : 744 MiB
Duration                    : 1 h 53 min
Overall bit rate            : 914 kb/s
Movie name                  : Ленин. Неизбежность.(2019).WEB-DLRip-AVC.[-=DoMiNo=-]
Encoded date                : UTC 2019-11-28 09:54:40
Writing application         : mkvmerge v40.0.0 ('Old Town Road + Pony') 64-bit
Writing library             : libebml v1.3.9 + libmatroska v1.5.2
Attachments                 : poster.png / poster 2.jpg

Video
ID                          : 1
Format                      : AVC
Format/Info                 : Advanced Video Codec
Format profile              : High@L4.1
Format settings             : CABAC / 12 Ref Frames
Format settings, CABAC      : Yes
Format settings, Reference  : 12 frames
Codec ID                    : V_MPEG4/ISO/AVC
Duration                    : 1 h 53 min
Bit rate                    : 849 kb/s
Width                       : 726 pixels
Height                      : 304 pixels
Display aspect ratio        : 2.40:1
Frame rate mode             : Constant
Frame rate                  : 24.000 FPS
Color space                 : YUV
Chroma subsampling          : 4:2:0
Bit depth                   : 8 bits
Scan type                   : Progressive
Bits/(Pixel*Frame)          : 0.160
Stream size                 : 691 MiB (93%)
Title                       : RIP_BY_-=DoMiNo=-
Writing library             : x264 core 158 r2988 7817004
Encoding settings           : cabac=1 / ref=12 / deblock=1:-1:-1 / analyse=0x3:0x133 / me=umh / subme=10 / psy=1 / psy_rd=1.00:0.15 / mixed_ref=1 / me_range=32 / chroma_me=1 / trellis=2 / 8x8dct=1 / cqm=0 / deadzone=21,11 / fast_pskip=0 / chroma_qp_offset=-3 / threads=6 / lookahead_threads=1 / sliced_threads=0 / nr=0 / decimate=0 / interlaced=0 / bluray_compat=0 / constrained_intra=0 / bframes=12 / b_pyramid=2 / b_adapt=2 / b_bias=0 / direct=3 / weightb=1 / open_gop=0 / weightp=2 / keyint=250 / keyint_min=23 / scenecut=40 / intra_refresh=0 / rc_lookahead=40 / rc=2pass / mbtree=0 / bitrate=849 / ratetol=1.0 / qcomp=0.60 / qpmin=0 / qpmax=69 / qpstep=4 / cplxblur=20.0 / qblur=0.5 / vbv_maxrate=50000 / vbv_bufsize=62500 / nal_hrd=none / filler=0 / ip_ratio=1.40 / pb_ratio=1.30 / aq=2:1.00
Language                    : Russian
Default                     : Yes
Forced                      : No

Audio
ID                          : 2
Format                      : AAC LC SBR
Format/Info                 : Advanced Audio Codec Low Complexity with Spectral Band Replication
Commercial name             : HE-AAC
Format settings             : Explicit
Codec ID                    : A_AAC-2
Duration                    : 1 h 53 min
Bit rate                    : 62.7 kb/s
Channel(s)                  : 2 channels
Channel layout              : L R
Sampling rate               : 48.0 kHz
Frame rate                  : 23.438 FPS (2048 SPF)
Compression mode            : Lossy
Stream size                 : 51.1 MiB (7%)
Title                       : RUS
Language                    : Russian
Default                     : Yes
Forced                      : No

Menu
00:00:00.000                : :Глава 01
00:05:00.000                : :Глава 02
00:10:00.000                : :Глава 03
00:15:00.000                : :Глава 04
00:20:00.000                : :Глава 05
00:25:00.000                : :Глава 06
00:30:00.000                : :Глава 07
00:35:00.000                : :Глава 08
00:40:00.000                : :Глава 09
00:45:00.000                : :Глава 10
00:50:00.000                : :Глава 11
00:55:00.000                : :Глава 12
01:00:00.000                : :Глава 13
01:05:00.000                : :Глава 14
01:10:00.000                : :Глава 15
01:15:00.000                : :Глава 16
01:20:00.000                : :Глава 17
01:25:00.000                : :Глава 18
01:30:00.000                : :Глава 19
01:35:00.000                : :Глава 20
01:40:00.000                : :Глава 21
01:45:00.000                : :Глава 22
01:50:00.000                : :Глава 23



Скриншоты:
[+] Всего файлов в раздаче - 1:
Ленин. Неизбежность.(2019).WEB-DLRip-AVC.[-=DoMiNo=-].mkv744.22 MB

Похожие раздачи по запросу - ленин:
2019-11-29 U Ленин. Неизбежность (2019) WEB-DLRip-AVC от Files-x 2.04 GB ↑ 65 ↓ 20
2019-11-28 U Ленин. Неизбежность (2019) WEB-DLRip от Portablius 1К746.49 MB ↑ 154 ↓ 50
2019-11-28 U Ленин. Неизбежность (2019) WEB-DL 720p от ExKinoRay 2.34 GB ↑ 293 ↓ 101
2019-11-28 U Ленин. Неизбежность (2019) WEBRip 1080p 4.37 GB ↑ 34 ↓ 51
2019-11-28 U Ленин. Неизбежность (2019) WEBRip 1.45 GB ↑ 126 ↓ 80
2016-03-11 U В. И. Ленин - Полное собрание сочинений (1893-1922) (1973) FB2 109.98 MB ↑ 16534 ↓ 526

Отзывы
Зарегистрируйтесь чтобы добавить комментарий.
Обратная связь
Copyleft ©