↑↓torrent.by
Поиск
Логин: Регистрация
Пароль: Восстановить пароль

Курьер / The Courier (2019) WEB-DLRip 720p | L2

Скачать kurer-the-courier-2019-web-dlrip-720p-l2.torrent
U Магнитная ссылка Размер: 2.09 GB Раздают: 1069 Качают: 81 Добавлен: 2019-11-29 04:32:43
Курьер / The Courier (2019) WEB-DLRip 720p | L2

Название: Курьер
Оригинальное название: The Courier
Год выхода: 2019
Жанр: боевик, драма
Режиссер: Закари Адлер / Zackary Adler
В ролях: Ольга Куриленко, Гари Олдман, Уильям Моусли, Дермот Малруни, Алисия Агнесон, Амит Шах

О фильме:
Она - курьер на мотоцикле, развозит посылки по ночному Лондону. И именно она помогает выжить единственному свидетелю, который должен дать показания на криминального босса

Страна: США, Великобритания
Студия: Lionsgate
Продолжительность: 01:39:34
Перевод: любительский (двухголосый закадровый)  Iriano@qwerty

Файл
Кодек: AVC
Качество: WebDLRip
Видео: 1280*720  23,976 fps 2616 kbps bt 0,118
Звук: 44,1 кГ, ac3, 6 ch, 384 kb/c

Сэмпл http://sendfile.su/1531292


[+] Скрытый текст
Формат                                   : Matroska
Версия формата                           : Version 4
Размер файла                             : 2,09 Гбайт
Продолжительность                        : 1 ч. 39 м.
Режим общего битрейта                    : Переменный
Общий поток                              : 3002 Кбит/сек

Видео
Идентификатор                            : 1
Формат                                   : AVC
Формат/Информация                        : Advanced Video Codec
Профиль формата                          : Main@L3.2
Настройки формата                        : CABAC / 3 Ref Frames
Параметр CABAC формата                   : Да
Параметр RefFrames формата               : 3 кадра
Идентификатор кодека                     : V_MPEG4/ISO/AVC
Продолжительность                        : 1 ч. 39 м.
Вид битрейта                             : Переменный
Битрейт                                  : 2616 Кбит/сек
Максимальный битрейт                     : 5000 Кбит/сек
Ширина                                   : 1280 пикселей
Высота                                   : 720 пикселей
Соотношение сторон                       : 16:9
Режим частоты кадров                     : Постоянный
Частота кадров                           : 23,976 (24000/1001) кадра/сек
Стандарт вещания                         : NTSC
Цветовое пространство                    : YUV
Субдискретизация насыщенности            : 4:2:0
Битовая глубина                          : 8 бит
Тип развёртки                            : Прогрессивная
Бит/(Пиксели*Кадры)                      : 0.118
Размер потока                            : 1,82 Гбайт (87%)

Аудио
Формат                                   : AC-3
Формат/Информация                        : Audio Coding 3
Идентификатор кодека                     : A_AC3
Продолжительность                        : 1 ч. 39 м.
Вид битрейта                             : Постоянный
Битрейт                                  : 384 Кбит/сек
Каналы                                   : 6 каналов
ChannelLayout                            : L R C LFE Ls Rs
Частота                                  : 44,1 КГц
Частота кадров                           : 28,711 кадров/сек (1536 SPF)
Битовая глубина                          : 16 бит
Метод сжатия                             : С потерями
Размер потока                            : 274 Мбайт (13%)
Язык                                     : Russian



Скриншоты:
[img]https://i111.fastpic.ru/thumb/2019/1128/a2/9adeabc3e608b75c4f8e5c94b6520ea2.jpeg" />
[+] Всего файлов в раздаче - 1:
Kypbep.2019.mkv2.09 GB

Похожие раздачи по запросу - курьер:
2020-01-03 U Курьер / The Courier (2019) WEB-DLRip | iTunes 1К1.46 GB ↑ 688 ↓ 323
2020-01-03 U Курьер / The Courier (2019) WEB-DL 1080p | iTunes 5.91 GB ↑ 193 ↓ 124

Отзывы
Зарегистрируйтесь чтобы добавить комментарий.
Загрузите программу
  uTorrent.exe
Обратная связь
Copyleft ©