↑↓torrent.by
Поиск
Логин: Регистрация
Пароль: Восстановить пароль

Я иду искать / Ready or Not (2019) BDRip 1080p от селезень | iTunes

Скачать ya-idu-iskat-ready-or-not-2019-bdrip-1080p-ot-selezen-itunes.torrent
U Магнитная ссылка Размер: 11.35 GB Раздают: 291 Качают: 116 Добавлен: 2019-11-29 04:33:05
Я иду искать / Ready or Not (2019) BDRip 1080p от селезень | iTunes

Название: Я иду искать
Оригинальное название: Ready or Not
Год выхода: 2019
Жанр: Ужасы, триллер, комедия
Режиссер: Мэттью Беттинелли, Тайлер Джиллетт
В ролях: Самара Уивинг, Адам Броди, Марк О`Брайэн, Генри Черни, Энди МакДауэлл, Мелани Скрофано, Кристиан Бруун, Никки Гуаданьи, Элиз Левеске, Джон Ралстон, Лиам Макдональд, Этан Таварес, Хеннеки Талбот, Даниэла Барбоза, Чейз Черчилль, Эндрю Энтони, Элана Дункельман

О фильме: Юная невеста - теперь часть семьи своего новоиспеченного мужа, богатого, но эксцентричного рода, чтящего вековые традиции. Но кто бы мог подумать, что знакомство с родителями супруга превратится в смертельную игру, в которой все борются не на жизнь, а на смерть.

Страна: Канада, США
Студия: Mythology Entertainment, Vinson Films
Продолжительность: 01:35:22
Перевод: Дублированный | iTunes

Качество: BDRip 1080p
Видео: MPEG-4 AVC, 1920x804, 15.9 Mbit/s, 23.976 fps
Аудио #01: 48 kHz, AC3, 5.1, 384 Kbps | iTunes | RUS |
Аудио #02: 48 kHz, AC3, 2.0, 160 Kbps | iTunes | UKR |
Аудио #03: 48 kHz, AC3, 5.1, 640 Kbps | Оригинал |  ENG |
Субтитры: Русские (Forced, full), украинские (Full), английские

Релиз:


[+] MI
General
Unique ID                   : 106456412978196871704203642057557688987 (0x5016C264EFDEF939BCBFDFB0AF6E429B)
Complete name               : F:Video111Ready.or.Not.2019.BDRip.1080p.seleZen.mkv
Format                      : Matroska
Format version              : Version 4
File size                   : 11.4 GiB
Duration                    : 1 h 35 min
Overall bit rate            : 17.0 Mb/s
Movie name                  : Ready or Not 2019 from селезень
Encoded date                : UTC 2019-11-28 19:31:45
Writing application         : mkvmerge v40.0.0 ('Old Town Road + Pony') 64-bit
Writing library             : libebml v1.3.9 + libmatroska v1.5.2

Video
ID                          : 1
Format                      : AVC
Format/Info                 : Advanced Video Codec
Format profile              : High@L4.1
Format settings             : CABAC / 5 Ref Frames
Format settings, CABAC      : Yes
Format settings, Reference  : 5 frames
Codec ID                    : V_MPEG4/ISO/AVC
Duration                    : 1 h 35 min
Bit rate                    : 15.9 Mb/s
Width                       : 1 920 pixels
Height                      : 804 pixels
Display aspect ratio        : 2.40:1
Frame rate mode             : Constant
Frame rate                  : 23.976 (24000/1001) FPS
Color space                 : YUV
Chroma subsampling          : 4:2:0
Bit depth                   : 8 bits
Scan type                   : Progressive
Bits/(Pixel*Frame)          : 0.428
Stream size                 : 10.6 GiB (93%)
Title                       : playHD
Writing library             : x264 core 157 r2970+47 cae74a0 t_mod_New [0-bit@all X86_64]
Encoding settings           : cabac=1 / ref=5 / deblock=1:-3:-3 / analyse=0x3:0x133 / me=umh / subme=10 / psy=1 / fade_compensate=0.00 / psy_rd=1.00:0.00 / mixed_ref=1 / me_range=32 / chroma_me=1 / trellis=2 / 8x8dct=1 / cqm=0 / deadzone=21,11 / fast_pskip=0 / chroma_qp_offset=-2 / threads=24 / lookahead_threads=4 / sliced_threads=0 / nr=0 / decimate=0 / interlaced=0 / bluray_compat=0 / constrained_intra=0 / fgo=0 / bframes=8 / b_pyramid=2 / b_adapt=2 / b_bias=0 / direct=3 / weightb=1 / open_gop=0 / weightp=2 / keyint=250 / keyint_min=23 / scenecut=40 / intra_refresh=0 / rc=crf / mbtree=0 / crf=16.5000 / qcomp=0.60 / qpmin=0:0:0 / qpmax=69:69:69 / qpstep=4 / ip_ratio=1.30 / pb_ratio=1.20 / aq=3:0.85 / aq-sensitivity=10.00 / aq-factor=1.00:1.00:1.00 / aq2=0 / aq3=0
Language                    : English
Default                     : Yes
Forced                      : No

Audio #1
ID                          : 2
Format                      : AC-3
Format/Info                 : Audio Coding 3
Commercial name             : Dolby Digital
Codec ID                    : A_AC3
Duration                    : 1 h 35 min
Bit rate mode               : Constant
Bit rate                    : 384 kb/s
Channel(s)                  : 6 channels
Channel layout              : L R C LFE Ls Rs
Sampling rate               : 48.0 kHz
Frame rate                  : 31.250 FPS (1536 SPF)
Bit depth                   : 16 bits
Compression mode            : Lossy
Stream size                 : 262 MiB (2%)
Title                       : iTunes
Language                    : Russian
Service kind                : Complete Main
Default                     : Yes
Forced                      : Yes

Audio #2
ID                          : 3
Format                      : AC-3
Format/Info                 : Audio Coding 3
Commercial name             : Dolby Digital
Codec ID                    : A_AC3
Duration                    : 1 h 35 min
Bit rate mode               : Constant
Bit rate                    : 160 kb/s
Channel(s)                  : 2 channels
Channel layout              : L R
Sampling rate               : 48.0 kHz
Frame rate                  : 31.250 FPS (1536 SPF)
Bit depth                   : 16 bits
Compression mode            : Lossy
Stream size                 : 109 MiB (1%)
Title                       : iTunes
Language                    : Ukrainian
Service kind                : Complete Main
Default                     : No
Forced                      : No

Audio #3
ID                          : 4
Format                      : AC-3
Format/Info                 : Audio Coding 3
Commercial name             : Dolby Digital
Codec ID                    : A_AC3
Duration                    : 1 h 35 min
Bit rate mode               : Constant
Bit rate                    : 640 kb/s
Channel(s)                  : 6 channels
Channel layout              : L R C LFE Ls Rs
Sampling rate               : 48.0 kHz
Frame rate                  : 31.250 FPS (1536 SPF)
Bit depth                   : 16 bits
Compression mode            : Lossy
Stream size                 : 437 MiB (4%)
Title                       : Original
Language                    : English
Service kind                : Complete Main
Default                     : No
Forced                      : No

Text #1
ID                          : 5
Format                      : UTF-8
Codec ID                    : S_TEXT/UTF8
Codec ID/Info               : UTF-8 Plain Text
Duration                    : 1 h 34 min
Bit rate                    : 5 b/s
Count of elements           : 104
Stream size                 : 3.58 KiB (0%)
Title                       : Forced
Language                    : Russian
Default                     : Yes
Forced                      : Yes

Text #2
ID                          : 6
Format                      : UTF-8
Codec ID                    : S_TEXT/UTF8
Codec ID/Info               : UTF-8 Plain Text
Duration                    : 1 h 34 min
Bit rate                    : 75 b/s
Count of elements           : 1142
Stream size                 : 52.0 KiB (0%)
Title                       : Full
Language                    : Russian
Default                     : No
Forced                      : No

Text #3
ID                          : 7
Format                      : UTF-8
Codec ID                    : S_TEXT/UTF8
Codec ID/Info               : UTF-8 Plain Text
Duration                    : 1 h 34 min
Bit rate                    : 66 b/s
Count of elements           : 1080
Stream size                 : 46.0 KiB (0%)
Title                       : Full
Language                    : Ukrainian
Default                     : No
Forced                      : No

Text #4
ID                          : 8
Format                      : UTF-8
Codec ID                    : S_TEXT/UTF8
Codec ID/Info               : UTF-8 Plain Text
Duration                    : 1 h 33 min
Bit rate                    : 46 b/s
Count of elements           : 1095
Stream size                 : 32.2 KiB (0%)
Language                    : English
Default                     : No
Forced                      : No

Menu #1
00:00:00.000                : :Chapter 01
00:03:11.817                : :Chapter 02
00:06:49.534                : :Chapter 03
00:09:27.776                : :Chapter 04
00:12:27.038                : :Chapter 05
00:16:24.150                : :Chapter 06
00:21:57.942                : :Chapter 07
00:25:21.061                : :Chapter 08
00:28:00.262                : :Chapter 09
00:31:21.922                : :Chapter 10
00:34:46.459                : :Chapter 11
00:36:08.625                : :Chapter 12
00:38:23.760                : :Chapter 13
00:41:55.930                : :Chapter 14
00:45:40.363                : :Chapter 15
00:48:03.047                : :Chapter 16
00:51:50.441                : :Chapter 17
00:54:05.075                : :Chapter 18
00:57:05.088                : :Chapter 19
00:59:52.714                : :Chapter 20
01:01:37.903                : :Chapter 21
01:04:01.671                : :Chapter 22
01:07:31.422                : :Chapter 23
01:09:25.828                : :Chapter 24
01:11:48.304                : :Chapter 25
01:15:59.722                : :Chapter 26
01:18:34.585                : :Chapter 27
01:21:39.645                : :Chapter 28
01:24:07.292                : :Chapter 29
01:27:48.013                : :Chapter 30
01:29:22.315                : :Chapter 31
01:30:49.152                : :Chapter 32

Menu #2
00:00:00.054                : en:Chapter 01



Скриншоты:
[+] Всего файлов в раздаче - 1:
Ready.or.Not.2019.BDRip.1080p.seleZen.mkv11.35 GB

Похожие раздачи по запросу - искать:
2019-12-02 U Я иду искать / Ready or Not (2019) BDRip 720p от Scarabey | iTunes 5.18 GB ↑ 64 ↓ 21
2019-11-30 U Я иду искать / Ready or Not (2019) HDRip от Scarabey | iTunes 1.40 GB ↑ 379 ↓ 32
2019-11-29 U Я иду искать / Ready or Not (2019) BDRip-AVC | iTunes 2.19 GB ↑ 407 ↓ 103
2019-11-29 U Я иду искать / Ready or Not (2019) BDRemux 1080p от селезень | iTunes 24.06 GB ↑ 98 ↓ 49
2019-11-29 U Я иду искать / Ready or Not (2019) BDRip-AVC от ExKinoRay | iTunes 1.53 GB ↑ 196 ↓ 59

Отзывы
Зарегистрируйтесь чтобы добавить комментарий.
Обратная связь
Copyleft ©