↑↓torrent.by
Поиск
Логин: Регистрация
Пароль: Восстановить пароль

Я иду искать / Ready or Not (2019) BDRemux 1080p от селезень | iTunes

Скачать ya-idu-iskat-ready-or-not-2019-bdremux-1080p-ot-selezen-itunes.torrent
U Магнитная ссылка Размер: 24.06 GB Раздают: 93 Качают: 49 Добавлен: 2019-11-29 04:34:22
Я иду искать / Ready or Not (2019) BDRemux 1080p от селезень | iTunes

Название: Я иду искать
Оригинальное название: Ready or Not
Год выхода: 2019
Жанр: Ужасы, триллер, комедия
Режиссер: Мэттью Беттинелли, Тайлер Джиллетт
В ролях: Самара Уивинг, Адам Броди, Марк О`Брайэн, Генри Черни, Энди МакДауэлл, Мелани Скрофано, Кристиан Бруун, Никки Гуаданьи, Элиз Левеске, Джон Ралстон, Лиам Макдональд, Этан Таварес, Хеннеки Талбот, Даниэла Барбоза, Чейз Черчилль, Эндрю Энтони, Элана Дункельман

О фильме: Юная невеста - теперь часть семьи своего новоиспеченного мужа, богатого, но эксцентричного рода, чтящего вековые традиции. Но кто бы мог подумать, что знакомство с родителями супруга превратится в смертельную игру, в которой все борются не на жизнь, а на смерть.

Страна: Канада, США
Студия: Mythology Entertainment, Vinson Films
Продолжительность: 01:35:22
Перевод: Дублированный | iTunes

Качество: BDRemux 1080p
Видео: MPEG-4 AVC, 1920x1080, 31.9 Mbit/s, 23.976 fps
Аудио #01: 48 kHz, AC3, 5.1, 384 Kbps | iTunes | RUS |
Аудио #02: 48 kHz, AC3, 2.0, 160 Kbps | iTunes | UKR |
Аудио #03: 48 kHz, DTS-HD MA, 5.1, 3698 Kbps | Оригинал |  ENG |
Субтитры: Русские (Forced, full), украинские (Full), английские

Релиз:


[+] MI
General
Unique ID                   : 130336808109438201306337055426825614100 (0x620DF4C6DC7B842A6177B05418B6F314)
Complete name               : F:Video111Ready.or.Not.2019.BDREMUX.1080p.seleZen.mkv
Format                      : Matroska
Format version              : Version 4
File size                   : 24.1 GiB
Duration                    : 1 h 35 min
Overall bit rate mode       : Variable
Overall bit rate            : 36.1 Mb/s
Movie name                  : Ready or Not 2019 from селезень
Encoded date                : UTC 2019-11-28 20:00:20
Writing application         : mkvmerge v40.0.0 ('Old Town Road + Pony') 64-bit
Writing library             : libebml v1.3.9 + libmatroska v1.5.2

Video
ID                          : 1
Format                      : AVC
Format/Info                 : Advanced Video Codec
Format profile              : High@L4.1
Format settings             : CABAC / 2 Ref Frames
Format settings, CABAC      : Yes
Format settings, Reference  : 2 frames
Codec ID                    : V_MPEG4/ISO/AVC
Duration                    : 1 h 35 min
Bit rate mode               : Variable
Bit rate                    : 31.9 Mb/s
Width                       : 1 920 pixels
Height                      : 1 080 pixels
Display aspect ratio        : 16:9
Frame rate mode             : Constant
Frame rate                  : 23.976 (24000/1001) FPS
Color space                 : YUV
Chroma subsampling          : 4:2:0
Bit depth                   : 8 bits
Scan type                   : Progressive
Bits/(Pixel*Frame)          : 0.641
Stream size                 : 21.2 GiB (88%)
Language                    : English
Default                     : Yes
Forced                      : No

Audio #1
ID                          : 2
Format                      : AC-3
Format/Info                 : Audio Coding 3
Commercial name             : Dolby Digital
Codec ID                    : A_AC3
Duration                    : 1 h 35 min
Bit rate mode               : Constant
Bit rate                    : 384 kb/s
Channel(s)                  : 6 channels
Channel layout              : L R C LFE Ls Rs
Sampling rate               : 48.0 kHz
Frame rate                  : 31.250 FPS (1536 SPF)
Bit depth                   : 16 bits
Compression mode            : Lossy
Stream size                 : 262 MiB (1%)
Title                       : iTunes
Language                    : Russian
Service kind                : Complete Main
Default                     : Yes
Forced                      : Yes

Audio #2
ID                          : 3
Format                      : AC-3
Format/Info                 : Audio Coding 3
Commercial name             : Dolby Digital
Codec ID                    : A_AC3
Duration                    : 1 h 35 min
Bit rate mode               : Constant
Bit rate                    : 160 kb/s
Channel(s)                  : 2 channels
Channel layout              : L R
Sampling rate               : 48.0 kHz
Frame rate                  : 31.250 FPS (1536 SPF)
Bit depth                   : 16 bits
Compression mode            : Lossy
Stream size                 : 109 MiB (0%)
Title                       : iTunes
Language                    : Ukrainian
Service kind                : Complete Main
Default                     : No
Forced                      : No

Audio #3
ID                          : 4
Format                      : DTS XLL
Format/Info                 : Digital Theater Systems
Commercial name             : DTS-HD Master Audio
Codec ID                    : A_DTS
Duration                    : 1 h 35 min
Bit rate mode               : Variable
Bit rate                    : 3 698 kb/s
Channel(s)                  : 6 channels
Channel layout              : C L R Ls Rs LFE
Sampling rate               : 48.0 kHz
Frame rate                  : 93.750 FPS (512 SPF)
Bit depth                   : 24 bits
Compression mode            : Lossless
Stream size                 : 2.46 GiB (10%)
Title                       : Original
Language                    : English
Default                     : No
Forced                      : No

Text #1
ID                          : 5
Format                      : UTF-8
Codec ID                    : S_TEXT/UTF8
Codec ID/Info               : UTF-8 Plain Text
Duration                    : 1 h 34 min
Bit rate                    : 5 b/s
Count of elements           : 104
Stream size                 : 3.58 KiB (0%)
Title                       : Forced
Language                    : Russian
Default                     : Yes
Forced                      : Yes

Text #2
ID                          : 6
Format                      : UTF-8
Codec ID                    : S_TEXT/UTF8
Codec ID/Info               : UTF-8 Plain Text
Duration                    : 1 h 34 min
Bit rate                    : 75 b/s
Count of elements           : 1142
Stream size                 : 52.0 KiB (0%)
Title                       : Full
Language                    : Russian
Default                     : No
Forced                      : No

Text #3
ID                          : 7
Format                      : UTF-8
Codec ID                    : S_TEXT/UTF8
Codec ID/Info               : UTF-8 Plain Text
Duration                    : 1 h 34 min
Bit rate                    : 66 b/s
Count of elements           : 1080
Stream size                 : 46.0 KiB (0%)
Title                       : Full
Language                    : Ukrainian
Default                     : No
Forced                      : No

Text #4
ID                          : 8
Format                      : UTF-8
Codec ID                    : S_TEXT/UTF8
Codec ID/Info               : UTF-8 Plain Text
Duration                    : 1 h 33 min
Bit rate                    : 46 b/s
Count of elements           : 1095
Stream size                 : 32.2 KiB (0%)
Language                    : English
Default                     : No
Forced                      : No

Menu #1
00:00:00.000                : :Chapter 01
00:03:11.817                : :Chapter 02
00:06:49.534                : :Chapter 03
00:09:27.776                : :Chapter 04
00:12:27.038                : :Chapter 05
00:16:24.150                : :Chapter 06
00:21:57.942                : :Chapter 07
00:25:21.061                : :Chapter 08
00:28:00.262                : :Chapter 09
00:31:21.922                : :Chapter 10
00:34:46.459                : :Chapter 11
00:36:08.625                : :Chapter 12
00:38:23.760                : :Chapter 13
00:41:55.930                : :Chapter 14
00:45:40.363                : :Chapter 15
00:48:03.047                : :Chapter 16
00:51:50.441                : :Chapter 17
00:54:05.075                : :Chapter 18
00:57:05.088                : :Chapter 19
00:59:52.714                : :Chapter 20
01:01:37.903                : :Chapter 21
01:04:01.671                : :Chapter 22
01:07:31.422                : :Chapter 23
01:09:25.828                : :Chapter 24
01:11:48.304                : :Chapter 25
01:15:59.722                : :Chapter 26
01:18:34.585                : :Chapter 27
01:21:39.645                : :Chapter 28
01:24:07.292                : :Chapter 29
01:27:48.013                : :Chapter 30
01:29:22.315                : :Chapter 31
01:30:49.152                : :Chapter 32

Menu #2
00:00:00.054                : en:Chapter 01



Скриншоты:
[+] Всего файлов в раздаче - 1:
Ready.or.Not.2019.BDREMUX.1080p.seleZen.mkv24.06 GB

Показать еще раздачи по запросу искать:
2020-01-28 U Я иду искать / Ready or Not (2019) BDRip-AVC | D 2.19 GB ↑ 51 ↓ 10
2019-12-02 U Я иду искать / Ready or Not (2019) BDRip 720p от Scarabey | iTunes 5.18 GB ↑ 64 ↓ 21
2019-12-02 U Я иду искать / Ready Or Not (2019) BDRip-HEVC 1080p от NoMaD | D | iTunes 5.00 GB ↑ 114 ↓ 39
2019-12-01 U Я иду искать / Ready or Not (2019) BDRip-AVC от OlLanDGroup | iTunes 1.45 GB ↑ 229 ↓ 73
2019-11-30 U Я иду искать / Ready or Not (2019) HDRip от Scarabey | iTunes 1.40 GB ↑ 318 ↓ 32
2019-11-30 U Я иду искать / Ready or Not (2019) BDRip от Twister & ExKinoRay | iTunes 1К1.42 GB ↑ 80 ↓ 29
2019-11-30 U Я иду искать / Ready or Not (2019) BDRip-AVC от OlLanDGroup | iTunes 746.11 MB ↑ 112 ↓ 11

Отзывы
Зарегистрируйтесь чтобы добавить комментарий.
Обратная связь
Copyleft ©