↑↓torrent.by
Поиск
Логин: Регистрация
Пароль: Восстановить пароль

Уральские пельмени. Нежная королева [эфир от 17.09] (2021) WEB-DL 1080p

Скачать uralskie-pelmeni-nezhnaya-koroleva-efir-ot-17-09-2021-web-dl-1080p.torrent
U Магнитная ссылка Размер: 1.84 GB Раздают: 131 Качают: 86 Добавлен: 2021-09-18 12:14:44
Уральские пельмени. Нежная королева [эфир от 17.09] (2021) WEB-DL 1080p

Название: Уральские пельмени. Нежная королева
Год выхода: 2021
Жанр: ТВ-шоу, юмор, сатира, развлекательный
Режиссер: Константин Куц, Леонид Коновалов, Анастасия Гуделова
В ролях: Дмитрий Брекоткин, Сергей Ершов, Сергей Исаев, Сергей Калугин, Вячеслав Мясников, Александр Попов, Андрей Рожков, Дмитрий Соколов (V), Максим Ярица, Стефания-Марьяна Гурская, Илана Юрьева, Ксения Корнева

О фильме:
Если поцеловать Спящую красавицу, получится Царевна. Если переодеть Золушку, получится невеста принца. Если оставить в лесу падчерицу, получится Белоснежка. А если растопить Снежную королеву, получится Нежная королева в новой программе от Шоу «Уральские Пельмени».

Страна: Россия
Студия: YBW Group, СТС
Продолжительность: 01:11:19
Язык: Русский

Дата эфира: 17 сентября 2021 года (СТС)
Примечание: Без рекламы

Файл
Формат: MKV
Качество: WEB-DL 1080p
Видео: MPEG-4 AVC, 3500 кбит/с, 1920x1080
Звук: AC3, 2 ch, 192 Кбит/с


[+] MI
Общее
Уникальный идентификатор                 : 210873379060196332113389733174900177868 (0x9EA4BC4B143C005894DDBC67F5C03BCC)
Полное имя                               : D:Uralskie.pelmeni.17.09.2021.WEB-DL.1080p.mkv
Формат                                   : Matroska
Версия формата                           : Version 4
Размер файла                             : 1,84 Гбайт
Продолжительность                        : 1 ч. 11 м.
Общий поток                              : 3 689 Кбит/сек
Название фильма                          : Uralskie.pelmeni.17.09.2021.WEB-DL.1080p
Дата кодирования                         : UTC 2021-09-18 04:11:13
Программа кодирования                    : mkvmerge v60.0.0 ('Are We Copies?') 64-bit
Библиотека кодирования                   : libebml v1.4.2 + libmatroska v1.6.4
Attachments                              : poster.jpg

Видео
Идентификатор                            : 1
Формат                                   : AVC
Формат/Информация                        : Advanced Video Codec
Профиль формата                          : High@L5
Настройки формата                        : CABAC / 5 Ref Frames
Параметр CABAC формата                   : Да
Параметр RefFrames формата               : 5 кадров
Идентификатор кодека                     : V_MPEG4/ISO/AVC
Продолжительность                        : 1 ч. 11 м.
Битрейт                                  : 3 495 Кбит/сек
Ширина                                   : 1 920 пикселей
Высота                                   : 1 080 пикселей
Соотношение сторон                       : 16:9
Режим частоты кадров                     : Постоянный
Частота кадров                           : 25,000 кадров/сек
Стандарт вещания                         : PAL
Цветовое пространство                    : YUV
Субдискретизация насыщенности            : 4:2:0
Битовая глубина                          : 8 бит
Тип развёртки                            : Прогрессивная
Бит/(Пиксели*Кадры)                      : 0.067
Размер потока                            : 1,74 Гбайт (95%)
Default                                  : Да
Forced                                   : Нет
Цветовой диапазон                        : Limited
Основные цвета                           : BT.709
Характеристики трансфера                 : BT.709
Коэффициенты матрицы                     : BT.709

Аудио
Идентификатор                            : 2
Формат                                   : AC-3
Формат/Информация                        : Audio Coding 3
Коммерческое название                    : Dolby Digital
Идентификатор кодека                     : A_AC3
Продолжительность                        : 1 ч. 11 м.
Вид битрейта                             : Постоянный
Битрейт                                  : 192 Кбит/сек
Каналы                                   : 2 канала
Channel layout                           : L R
Частота                                  : 48,0 КГц
Частота кадров                           : 31,250 кадров/сек (1536 SPF)
Метод сжатия                             : С потерями
Размер потока                            : 97,9 Мбайт (5%)
Service kind                             : Complete Main
Default                                  : Да
Forced                                   : Нет



Скриншоты:
[+] Всего файлов в раздаче - 1:
Uralskie.pelmeni.17.09.2021.WEB-DL.1080p.mkv1.84 GB

Показать еще раздачи по запросу уральские:
2021-10-23 U Уральские пельмени. Без задних нот [эфир от 22.10] (2021) WEB-DLRip 989.12 MB ↑ 72 ↓ 28
2021-10-23 U Уральские пельмени. Без задних нот [эфир от 22.10] (2021) WEBRip 1080p от DolgOFF 2.22 GB ↑ 72 ↓ 40
2021-10-22 U Уральские пельмени. Без задних нот [эфир от 22.10] (2021) SATRip 921.17 MB ↑ 39 ↓ 42
2021-10-16 U Уральские пельмени. Азбука Уральских пельменей. «Ю» [эфир от 15.10] (2021) WEB-DLRip 962.49 MB ↑ 214 ↓ 54
2021-10-16 U Уральские пельмени. Азбука Уральских пельменей. «Ю» [эфир от 15.10] (2021) WEB-DL 1080p 1.82 GB ↑ 109 ↓ 29
2021-10-09 U Уральские пельмени. Мятый элемент [эфир от 08.10] (2021) WEB-DL 1080p 1.87 GB ↑ 636 ↓ 172
2021-10-02 U Уральские пельмени. Азбука Уральских пельменей. «Э» [эфир от 01.10] (2021) WEB-DLRip 954.10 MB ↑ 71 ↓ 59

Отзывы
Зарегистрируйтесь чтобы добавить комментарий.
Загрузите программу
  byTorrent
Обратная связь
Copyleft ©