↑↓torrent.by
Поиск
Логин: Регистрация
Пароль: Восстановить пароль

Я иду искать / Ready or Not (2019) BDRip-AVC | iTunes

Скачать ya-idu-iskat-ready-or-not-2019-bdrip-avc-itunes.torrent
U Магнитная ссылка Размер: 2.19 GB Раздают: 408 Качают: 103 Добавлен: 2019-11-29 18:18:42
Я иду искать / Ready or Not (2019) BDRip-AVC | iTunes

Название: Я иду искать
Оригинальное название: Ready or Not

Год выхода: 2019

Жанр: ужасы, триллер, комедия, детектив

Режиссеры: Мэттью Беттинелли, Тайлер Джиллетт
Сценарий: Гай Бусик, Райан Мерфи

В ролях: Самара Уивинг, Адам Броди, Марк О’Брайэн, Генри Черни, Энди МакДауэлл, Мелани Скрофано, Кристиан Бруун, Никки Гуаданьи, Элиз Левек, Джон Ралстон и др.

О фильме:
Молодая невеста — теперь часть семьи своего новоиспеченного мужа, богатого, но эксцентричного рода, чтящего вековые традиции. Кто бы мог подумать, что первая брачная ночь превратится в смертельную игру с новообретёнными родственниками, в которой девушке нужно будет очень постараться, чтобы дожить до рассвета.

Страна: Канада, США

Продолжительность: 01:35:22

Перевод#1: Профессиональный (полное дублирование) [Русский]
Перевод#2: Профессиональный (полное дублирование) [Украинский]

Файл
Формат видео: MKV
Качество: BDRip-AVC |BluRay|
Видео: 1152x482 (2.40:1), 23.976 fps, AVC MPEG-4 (х.264), High@L4.1 ~2293 kbps, 0.172 bit/pixel
Аудио#1: 48 kHz, AC3, 3/2 (L,C,R,l,r) + LFE ch, ~384 kbps avg | DUB - Русский
Аудио#2: 48 kHz, AAC, 2/0 (L,R) ch, ~224 kbps avg kbps avg | DUB - Украинский
Аудио#3: 48 kHz, AC3, 3/2 (L,C,R,l,r) + LFE ch, ~384 kbps avg | Английский
Субтитры: Русские (форс., полные), Украинские (полные), Английские (полные, SDH, Commentary)

Автор рипа: dalemake

Реклама отсутствует.


[+] Русский трейлер
Русский трейлер



[+] MediaInfo
General
Unique ID                      : 235738316273729305753297284188798121100 (0xB1598C5922B2C792B4C90EE0816AF48C)
Complete name                  : E:Ready or Not.2019.BDRip-AVC.mkv
Format                         : Matroska
Format version                 : Version 4 / Version 2
File size                      : 2.19 GiB
Duration                       : 1 h 35 min
Overall bit rate               : 3 288 kb/s
Movie name                     : Ready or Not.2019.BDRip-AVC
Encoded date                   : UTC 2019-11-29 08:52:52
Writing application            : mkvmerge v7.8.0 ('River Man') 32bit built on Apr  3 2015 12:11:22
Writing library                : libebml v1.3.1 + libmatroska v1.4.2

Video
ID                             : 1
Format                         : AVC
Format/Info                    : Advanced Video Codec
Format profile                 : High@L4.1
Format settings, CABAC         : Yes
Format settings, ReFrames      : 12 frames
Codec ID                       : V_MPEG4/ISO/AVC
Duration                       : 1 h 35 min
Bit rate                       : 2 293 kb/s
Width                          : 1 152 pixels
Height                         : 482 pixels
Display aspect ratio           : 2.40:1
Frame rate mode                : Constant
Frame rate                     : 23.976 (24000/1001) FPS
Color space                    : YUV
Chroma subsampling             : 4:2:0
Bit depth                      : 8 bits
Scan type                      : Progressive
Bits/(Pixel*Frame)             : 0.172
Stream size                    : 1.53 GiB (70%)
Title                          : Ready or Not.2019.BDRip-AVC
Writing library                : x264 core 158 r2984 3759fcb
Encoding settings              : cabac=1 / ref=12 / deblock=1:-3:-2 / analyse=0x3:0x113 / me=hex / subme=11 / psy=1 / psy_rd=1.00:0.10 / mixed_ref=1 / me_range=16 / chroma_me=1 / trellis=2 / 8x8dct=1 / cqm=0 / deadzone=21,11 / fast_pskip=1 / chroma_qp_offset=-5 / threads=3 / lookahead_threads=1 / sliced_threads=0 / nr=0 / decimate=1 / interlaced=0 / bluray_compat=0 / constrained_intra=0 / bframes=9 / b_pyramid=2 / b_adapt=1 / b_bias=0 / direct=3 / weightb=1 / open_gop=0 / weightp=2 / keyint=240 / keyint_min=23 / scenecut=40 / intra_refresh=0 / rc_lookahead=50 / rc=crf / mbtree=0 / crf=18.3 / qcomp=0.60 / qpmin=0 / qpmax=69 / qpstep=4 / vbv_maxrate=50000 / vbv_bufsize=62500 / crf_max=0.0 / nal_hrd=none / filler=0 / ip_ratio=1.40 / pb_ratio=1.35 / aq=1:1.00
Language                       : English
Default                        : Yes
Forced                         : No

Audio #1
ID                             : 2
Format                         : AC-3
Format/Info                    : Audio Coding 3
Format settings, Endianness    : Big
Codec ID                       : A_AC3
Duration                       : 1 h 35 min
Bit rate mode                  : Constant
Bit rate                       : 384 kb/s
Channel(s)                     : 6 channels
Channel positions              : Front: L C R, Side: L R, LFE
Sampling rate                  : 48.0 kHz
Frame rate                     : 31.250 FPS (1536 spf)
Bit depth                      : 16 bits
Compression mode               : Lossy
Stream size                    : 262 MiB (12%)
Title                          : Dub - iTunes Russia
Language                       : Russian
Service kind                   : Complete Main
Default                        : Yes
Forced                         : No

Audio #2
ID                             : 3
Format                         : AC-3
Format/Info                    : Audio Coding 3
Format settings, Endianness    : Big
Codec ID                       : A_AC3
Duration                       : 1 h 35 min
Bit rate mode                  : Constant
Bit rate                       : 224 kb/s
Channel(s)                     : 2 channels
Channel positions              : Front: L R
Sampling rate                  : 48.0 kHz
Frame rate                     : 31.250 FPS (1536 spf)
Bit depth                      : 16 bits
Compression mode               : Lossy
Stream size                    : 153 MiB (7%)
Title                          : Dub - iTunes Russia
Language                       : Ukrainian
Service kind                   : Complete Main
Default                        : No
Forced                         : No

Audio #3
ID                             : 4
Format                         : AC-3
Format/Info                    : Audio Coding 3
Format settings, Endianness    : Big
Codec ID                       : A_AC3
Duration                       : 1 h 35 min
Bit rate mode                  : Constant
Bit rate                       : 384 kb/s
Channel(s)                     : 6 channels
Channel positions              : Front: L C R, Side: L R, LFE
Sampling rate                  : 48.0 kHz
Frame rate                     : 31.250 FPS (1536 spf)
Bit depth                      : 16 bits
Compression mode               : Lossy
Stream size                    : 262 MiB (12%)
Title                          : Original
Language                       : English
Service kind                   : Complete Main
Default                        : No
Forced                         : No

Text #1
ID                             : 5
Format                         : UTF-8
Codec ID                       : S_TEXT/UTF8
Codec ID/Info                  : UTF-8 Plain Text
Duration                       : 1 h 28 min
Bit rate                       : 5 b/s
Count of elements              : 103
Stream size                    : 3.53 KiB (0%)
Title                          : Forced
Language                       : Russian
Default                        : Yes
Forced                         : Yes

Text #2
ID                             : 6
Format                         : UTF-8
Codec ID                       : S_TEXT/UTF8
Codec ID/Info                  : UTF-8 Plain Text
Duration                       : 1 h 34 min
Bit rate                       : 75 b/s
Count of elements              : 1141
Stream size                    : 52.0 KiB (0%)
Title                          : Full
Language                       : Russian
Default                        : No
Forced                         : No

Text #3
ID                             : 7
Format                         : UTF-8
Codec ID                       : S_TEXT/UTF8
Codec ID/Info                  : UTF-8 Plain Text
Duration                       : 1 h 30 min
Bit rate                       : 69 b/s
Count of elements              : 1079
Stream size                    : 45.9 KiB (0%)
Title                          : Full
Language                       : Ukrainian
Default                        : No
Forced                         : No

Text #4
ID                             : 8
Format                         : UTF-8
Codec ID                       : S_TEXT/UTF8
Codec ID/Info                  : UTF-8 Plain Text
Duration                       : 1 h 33 min
Bit rate                       : 46 b/s
Count of elements              : 1095
Stream size                    : 32.2 KiB (0%)
Title                          : Full
Language                       : English
Default                        : No
Forced                         : No

Text #5
ID                             : 9
Format                         : UTF-8
Codec ID                       : S_TEXT/UTF8
Codec ID/Info                  : UTF-8 Plain Text
Duration                       : 1 h 35 min
Bit rate                       : 56 b/s
Count of elements              : 1362
Stream size                    : 39.5 KiB (0%)
Title                          : Full - SDH
Language                       : English
Default                        : No
Forced                         : No

Text #6
ID                             : 10
Format                         : UTF-8
Codec ID                       : S_TEXT/UTF8
Codec ID/Info                  : UTF-8 Plain Text
Duration                       : 1 h 35 min
Bit rate                       : 136 b/s
Count of elements              : 2358
Stream size                    : 95.2 KiB (0%)
Title                          : Commentary
Language                       : English
Default                        : No
Forced                         : No

Menu
00:00:00.000                   : en:Chapter 01
00:03:11.983                   : en:Chapter 02
00:06:49.534                   : en:Chapter 03
00:09:27.441                   : en:Chapter 04
00:12:26.787                   : en:Chapter 05
00:16:24.149                   : en:Chapter 06
00:21:58.275                   : en:Chapter 07
00:25:21.311                   : en:Chapter 08
00:28:00.261                   : en:Chapter 09
00:31:21.921                   : en:Chapter 10
00:34:46.459                   : en:Chapter 11
00:36:08.624                   : en:Chapter 12
00:38:23.676                   : en:Chapter 13
00:41:55.930                   : en:Chapter 14
00:45:40.362                   : en:Chapter 15
00:48:02.713                   : en:Chapter 16
00:51:50.440                   : en:Chapter 17
00:54:05.367                   : en:Chapter 18
00:57:04.963                   : en:Chapter 19
00:59:52.714                   : en:Chapter 20
01:01:37.902                   : en:Chapter 21
01:04:01.671                   : en:Chapter 22
01:07:31.505                   : en:Chapter 23
01:09:25.494                   : en:Chapter 24
01:11:48.053                   : en:Chapter 25
01:15:59.346                   : en:Chapter 26
01:18:34.584                   : en:Chapter 27
01:21:39.644                   : en:Chapter 28
01:24:07.292                   : en:Chapter 29
01:27:48.012                   : en:Chapter 30
01:29:22.315                   : en:Chapter 31
01:30:48.860                   : en:Chapter 32




Скриншоты:
[+] Всего файлов в раздаче - 1:
Ready or Not.2019.BDRip-AVC.mkv2.19 GB

Похожие раздачи по запросу - искать:
2019-12-02 U Я иду искать / Ready or Not (2019) BDRip 720p от Scarabey | iTunes 5.18 GB ↑ 65 ↓ 21
2019-11-30 U Я иду искать / Ready or Not (2019) HDRip от Scarabey | iTunes 1.40 GB ↑ 382 ↓ 32
2019-11-29 U Я иду искать / Ready or Not (2019) BDRemux 1080p от селезень | iTunes 24.06 GB ↑ 98 ↓ 49
2019-11-29 U Я иду искать / Ready or Not (2019) BDRip-AVC от ExKinoRay | iTunes 1.53 GB ↑ 203 ↓ 59
2019-11-29 U Я иду искать / Ready or Not (2019) BDRip 1080p от селезень | iTunes 11.35 GB ↑ 294 ↓ 116

Отзывы
Зарегистрируйтесь чтобы добавить комментарий.
Обратная связь
Copyleft ©