↑↓torrent.by
Поиск
Логин: Регистрация
Пароль: Восстановить пароль

Ирландец / The Irishman (2019) UHD WEB-DL 2160p от селезень | 4K | HDR | D

Скачать irlandec-the-irishman-2019-uhd-web-dl-2160p-ot-selezen-4k-hdr-d.torrent
U Магнитная ссылка Размер: 27.19 GB Раздают: 255 Качают: 322 Добавлен: 2019-11-29 18:19:01
Ирландец / The Irishman (2019) UHD WEB-DL 2160p от селезень | 4K | HDR | D

Название: Ирландец
Оригинальное название: The Irishman
Год выхода: 2019
Жанр: Драма, криминал, биография
Режиссер: Мартин Скорсезе
В ролях: Роберт Де Ниро, Анна Пэкуин, Аль Пачино, Джо Пеши, Алекса Палладино, Джесси Племонс, Харви Кейтель, Бобби Каннавале, Стивен Грэм, Джек Хьюстон

О фильме: История о Фрэнке Ширэне по прозвищу Ирландец, которому приписывают убийство 25 гангстеров, включая самого Джимми Хоффу.

Страна: США
Студия: Fábrica de Cine, Robert Simonds Company, The, Sikelia Productions, Tribeca Productions
Продолжительность: 03:29:21
Перевод: Дублированный | Netflix

Качество: WEB-DL 2160p
Видео: 3840x2080 at 23.976 fps, MPEG-H HEVC HDR Video, 17300 kbps avg
Аудио #01: 48 kHz, AC3, 5.1, 640 Kbps | Дублированный | RUS |
Аудио #02: 48 kHz, E-AC3+Dolby Atmos, 5.1, 768 Kbps | Оригинал |  ENG |
Субтитры: Русские (Forced, full), английские

Релиз:


[+] MI
General
Unique ID                   : 12144081394805618437872692759422716123 (0x922DD70ACC9235F9D0F843FA46648DB)
Complete name               : F:Video111The.Irishman.2019.WEB-DL.2160p.HDR.seleZen.mkv
Format                      : Matroska
Format version              : Version 4
File size                   : 27.2 GiB
Duration                    : 3 h 29 min
Overall bit rate            : 18.6 Mb/s
Movie name                  : The Irishman 2019 from селезень
Encoded date                : UTC 2019-11-29 03:50:26
Writing application         : mkvmerge v40.0.0 ('Old Town Road + Pony') 64-bit
Writing library             : libebml v1.3.9 + libmatroska v1.5.2

Video
ID                          : 1
Format                      : HEVC
Format/Info                 : High Efficiency Video Coding
Format profile              : Main 10@L6@High
HDR format                  : SMPTE ST 2086, HDR10 compatible
Codec ID                    : V_MPEGH/ISO/HEVC
Duration                    : 3 h 28 min
Bit rate                    : 17.3 Mb/s
Width                       : 3 840 pixels
Height                      : 2 080 pixels
Display aspect ratio        : 1.85:1
Frame rate mode             : Constant
Frame rate                  : 24.000 FPS
Color space                 : YUV
Chroma subsampling          : 4:2:0 (Type 2)
Bit depth                   : 10 bits
Bits/(Pixel*Frame)          : 0.090
Stream size                 : 25.1 GiB (92%)
Language                    : English
Default                     : Yes
Forced                      : No
Color range                 : Limited
Color primaries             : BT.2020
Transfer characteristics    : PQ
Matrix coefficients         : BT.2020 non-constant
Mastering display color pri : Display P3
Mastering display luminance : min: 0.0001 cd/m2, max: 1000 cd/m2
Maximum Content Light Level : 1014 cd/m2
Maximum Frame-Average Light : 263 cd/m2

Audio #1
ID                          : 2
Format                      : AC-3
Format/Info                 : Audio Coding 3
Commercial name             : Dolby Digital
Codec ID                    : A_AC3
Duration                    : 3 h 29 min
Bit rate mode               : Constant
Bit rate                    : 640 kb/s
Channel(s)                  : 6 channels
Channel layout              : L R C LFE Ls Rs
Sampling rate               : 48.0 kHz
Frame rate                  : 31.250 FPS (1536 SPF)
Bit depth                   : 16 bits
Compression mode            : Lossy
Stream size                 : 958 MiB (3%)
Title                       : Dub
Language                    : Russian
Service kind                : Complete Main
Default                     : Yes
Forced                      : Yes

Audio #2
ID                          : 3
Format                      : E-AC-3 JOC
Format/Info                 : Enhanced AC-3 with Joint Object Coding
Commercial name             : Dolby Digital Plus with Dolby Atmos
Codec ID                    : A_EAC3
Duration                    : 3 h 28 min
Bit rate mode               : Constant
Bit rate                    : 768 kb/s
Channel(s)                  : 6 channels
Channel layout              : L R C LFE Ls Rs
Sampling rate               : 48.0 kHz
Frame rate                  : 31.250 FPS (1536 SPF)
Compression mode            : Lossy
Stream size                 : 1.12 GiB (4%)
Title                       : Original
Language                    : English
Service kind                : Complete Main
Default                     : No
Forced                      : No
Complexity index            : 16
Number of dynamic objects   : 15
Bed channel count           : 1 channel
Bed channel configuration   : LFE

Text #1
ID                          : 4
Format                      : UTF-8
Codec ID                    : S_TEXT/UTF8
Codec ID/Info               : UTF-8 Plain Text
Duration                    : 3 h 28 min
Bit rate                    : 10 b/s
Count of elements           : 215
Stream size                 : 15.9 KiB (0%)
Title                       : Forced
Language                    : Russian
Default                     : Yes
Forced                      : Yes

Text #2
ID                          : 5
Format                      : UTF-8
Codec ID                    : S_TEXT/UTF8
Codec ID/Info               : UTF-8 Plain Text
Duration                    : 3 h 28 min
Bit rate                    : 97 b/s
Count of elements           : 2973
Stream size                 : 149 KiB (0%)
Title                       : Full
Language                    : Russian
Default                     : No
Forced                      : No

Text #3
ID                          : 6
Format                      : UTF-8
Codec ID                    : S_TEXT/UTF8
Codec ID/Info               : UTF-8 Plain Text
Duration                    : 57 s 292 ms
Bit rate                    : 47 b/s
Count of elements           : 17
Stream size                 : 343 Bytes (0%)
Title                       : Forced
Language                    : English
Default                     : No
Forced                      : No

Text #4
ID                          : 7
Format                      : UTF-8
Codec ID                    : S_TEXT/UTF8
Codec ID/Info               : UTF-8 Plain Text
Duration                    : 3 h 16 min
Bit rate                    : 69 b/s
Count of elements           : 2927
Stream size                 : 101 KiB (0%)
Title                       : Full
Language                    : English
Default                     : No
Forced                      : No



Скриншоты:
[+] Всего файлов в раздаче - 1:
The.Irishman.2019.WEB-DL.2160p.HDR.seleZen.mkv27.19 GB

Показать еще раздачи по запросу ирландец:
2019-12-20 U Ирландец / The Irishman (2019) WEB-DL 720p | NewStudio, Jaskier 6.49 GB ↑ 63 ↓ 39
2019-12-11 U OST - Ирландец / The Irishman (2019) MP3 139.32 MB ↑ 114 ↓ 13
2019-12-09 U Ирландец / The Irishman (2019) WEB-DL 1080p | D, P, A 13.88 GB ↑ 126 ↓ 56
2019-11-30 U Ирландец / The Irishman (2019) WEB-DLRip от Scarabey | Пифагор 1.45 GB ↑ 195 ↓ 49
2019-11-29 U Ирландец / The Irishman (2019) WEB-DL 1080p от Scarabey | Пифагор 10.60 GB ↑ 554 ↓ 58
2019-11-29 U Ирландец / The Irishman (2019) WEB-DLRip от Scarabey | Пифагор 2.17 GB ↑ 234 ↓ 40
2019-11-27 U Ирландец / The Irishman (2019) WEBRip-AVC | D 2.92 GB ↑ 346 ↓ 155

Отзывы
Зарегистрируйтесь чтобы добавить комментарий.
Обратная связь
Copyleft ©