↑↓Torrent.by
Поиск
Логин: Регистрация
Пароль: Восстановить пароль

Новогодний ветер (1975) DVDRip

Скачать novogodniy-veter-1975-dvdrip.torrent
U Магнитная ссылка Размер: 293.85 MB Раздают: 0 Качают: 0 Добавлен: 2019-11-29 18:41:58


Название: Новогодний ветер
Год выхода: 1975
Производство: СССР, Союзмультфильм
Жанр: Детский, Кукольный, Сказка, Короткометражный

Режиссер: Михаил Каменецкий, Вячеслав Шилобреев

Описание:
Самый младший братец-Морозец и маленький медвежонок случайно создают новогодний ветер, разносящий по свету игрушки и подарки.


Возраст: 0+ (для любой зрительской аудитории)

Продолжительность: 00:16:00
Качество видео: DVDRip
Субтитры: отсутствуют

Видео: DivX 5, 640x480, 2 301 Kbps
Аудио: MP3, 2 ch, 256 Kbps
[+] MediaInfo:

Общее
Полное имя                               : G:\Novogodnij veter.avi
Формат                                   : AVI
Формат/Информация                        : Audio Video Interleave
Размер файла                             : 294 Мбайт
Продолжительность                        : 16 м. 0 с.
Общий поток                              : 2567 Кбит/сек
Программа кодирования                    : VirtualDubMod 1.5.10.2 (build 2542/release)
Библиотека кодирования                   : VirtualDub build 32661/release

Видео
Идентификатор                            : 0
Формат                                   : MPEG-4 Visual
Параметр BVOP формата                    : Да
Параметр QPel формата                    : Нет
Параметр GMC формата                     : Без точки перехода
Параметр матрицы формата                 : Default (H.263)
Идентификатор кодека                     : DX50
Идентификатор кодека/Подсказка           : DivX 5
Продолжительность                        : 16 м. 0 с.
Битрейт                                  : 2301 Кбит/сек
Номинальный битрейт                      : 4854 Кбит/сек
Ширина                                   : 640 пикселей
Высота                                   : 480 пикселей
Соотношение сторон                       : 4:3
Частота кадров                           : 25,000 кадров/сек
Цветовое пространство                    : YUV
Субдискретизация насыщенности            : 4:2:0
Битовая глубина                          : 8 бит
Тип развёртки                            : Прогрессивная
Метод сжатия                             : С потерями
Бит/(Пиксели*Кадры)                      : 0.300
Размер потока                            : 263 Мбайт (90%)
Библиотека кодирования                   : DivX 6.8.5 (UTC 2009-08-20)

Аудио
Идентификатор                            : 1
Формат                                   : MPEG Audio
Версия формата                           : Version 1
Профиль формата                          : Layer 3
Режим                                    : Joint stereo
Идентификатор кодека                     : 55
Идентификатор кодека/Подсказка           : MP3
Продолжительность                        : 16 м. 0 с.
Вид битрейта                             : Постоянный
Битрейт                                  : 256 Кбит/сек
Каналы                                   : 2 канала
Частота                                  : 48,0 КГц
Метод сжатия                             : С потерями
Размер потока                            : 29,3 Мбайт (10%)
Выравнивание                             : Разделение по промежуткам
Продолжительность промежутка             : 40  мс. (1,00 видеокадр)
Время предзагрузки промежутка            : 500  мс.
Библиотека кодирования                   : LAME3.98.2


Скриншоты:
     
[+] Всего файлов в раздаче - 1:
Novogodnij veter.avi293.85 MB

Показать еще раздачи по запросу новогодний:
2019-09-06 U Полицейский с Рублёвки. Новогодний беспредел (2018) WEBRip 1.37 GB ↑ 60 ↓ 3
2019-05-05 U Полицейский с Рублёвки. Новогодний беспредел (2018) HDTVRip от GeneralFilm 744.86 MB ↑ 507 ↓ 91
2019-05-05 U Полицейский с Рублёвки. Новогодний беспредел (2018) WEBRip 720p от ExKinoRay 2.32 GB ↑ 1108 ↓ 363
2019-05-05 U Полицейский с Рублёвки. Новогодний беспредел (2018) WEBRip-AVC от Files-x 1.37 GB ↑ 324 ↓ 26
2019-05-05 U Полицейский с Рублёвки. Новогодний беспредел (2018) HDTV 1080i от ExKinoRay 5.15 GB ↑ 674 ↓ 150
2019-05-04 U Полицейский с Рублёвки. Новогодний беспредел (2018) WEBRip 1080p 3.26 GB ↑ 227 ↓ 563
2018-12-31 U Новый Comedy Club. Новогодний выпуск. Караоке Star [01-02 из 02] [эфир от 31.12] (2018) SATRip 1.12 GB ↑ 1198 ↓ 291

Отзывы
Зарегистрируйтесь чтобы добавить комментарий.
Обратная связь
Copyleft ©