↑↓torrent.by
Поиск
Логин: Регистрация
Пароль: Восстановить пароль

Однажды в… Голливуде / Once Upon a Time ... in Hollywood (2019) BDRip 1080p от селезень | Лицензия

Скачать odnazhdy-v-gollivude-once-upon-a-time-in-hollywood-2019-bdrip-1080p-ot-selezen-licenziya.torrent
U Магнитная ссылка Размер: 10.22 GB Раздают: 532 Качают: 472 Добавлен: 2019-11-29 18:43:16
Однажды в… Голливуде / Once Upon a Time ... in Hollywood (2019) BDRip 1080p от селезень | Лицензия

Название: Однажды в… Голливуде
Оригинальное название: Once Upon a Time ... in Hollywood
Год выхода: 2019
Жанр: Драма, комедия
Режиссер: Квентин Тарантино
В ролях: Брэд Питт, Леонардо ДиКаприо, Марго Робби, Майя Хоук, Остин Роберт Батлер, Сидни Свини, Маргарет Куэлли, Дакота Фэннинг, Тимоти Олифант, Аль Пачино, Эмиль Хирш, Джулия Баттерз, Брюс Дерн

О фильме: Фильм повествует о череде событий, произошедших в Голливуде в 1969 году, на закате его «золотого века». По сюжету, известный ТВ актер Рик Далтон и его дублер Клифф Бут пытаются найти свое место в стремительно меняющемся мире киноиндустрии.

Страна: Великобритания, США, Китай
Студия: Bona Film Group, Heyday Films, Sony Pictures Entertainment
Продолжительность: 02:41:29
Перевод: Дублированный | Лицензия

Качество: BDRip 1080p
Видео: MPEG-4 AVC, 1920x800, 7603 Kbit/s, 23.976 fps
Аудио #01: 48 kHz, AC3, 5.1, 640 Kbps | Дублированный | RUS |
Аудио #02: 48 kHz, AC3, 2.0, 160 Kbps | Дублированный | UKR |
Аудио #03: 48 kHz, AC3, 5.1, 640 Kbps | Оригинал |  ENG |
Субтитры: Русские (Forced, full), украинские (Full), английские

Релиз:


[+] MI
General
Unique ID                   : 139277978190248910259275494785191193176 (0x68C7F67F3D7D528CBC24C9FE87B72A58)
Complete name               : F:Video111Once.Upon.a.Time.in.Hollywood.2019.Lic.BDRip.1080p.seleZen.mkv
Format                      : Matroska
Format version              : Version 4
File size                   : 10.2 GiB
Duration                    : 2 h 41 min
Overall bit rate            : 9 057 kb/s
Movie name                  : Once Upon a Time in Hollywood 2019 from селезень
Encoded date                : UTC 2019-11-29 12:40:24
Writing application         : mkvmerge v40.0.0 ('Old Town Road + Pony') 64-bit
Writing library             : libebml v1.3.9 + libmatroska v1.5.2

Video
ID                          : 1
Format                      : AVC
Format/Info                 : Advanced Video Codec
Format profile              : High@L4.1
Format settings             : CABAC / 5 Ref Frames
Format settings, CABAC      : Yes
Format settings, Reference  : 5 frames
Codec ID                    : V_MPEG4/ISO/AVC
Duration                    : 2 h 41 min
Bit rate                    : 7 603 kb/s
Width                       : 1 920 pixels
Height                      : 800 pixels
Display aspect ratio        : 2.40:1
Frame rate mode             : Constant
Frame rate                  : 23.976 (24000/1001) FPS
Color space                 : YUV
Chroma subsampling          : 4:2:0
Bit depth                   : 8 bits
Scan type                   : Progressive
Bits/(Pixel*Frame)          : 0.206
Stream size                 : 8.59 GiB (84%)
Title                       : Encoded by seleZen
Writing library             : x264 core 148 r2705kMod 3f5ed56
Encoding settings           : cabac=1 / ref=5 / deblock=1:-2:-2 / analyse=0x3:0x113 / me=umh / subme=11 / psy=1 / fade_compensate=0.00 / psy_rd=1.00:0.00 / mixed_ref=1 / me_range=32 / chroma_me=1 / trellis=2 / 8x8dct=1 / cqm=0 / deadzone=21,11 / fast_pskip=0 / chroma_qp_offset=-2 / threads=24 / lookahead_threads=6 / sliced_threads=0 / nr=0 / decimate=0 / interlaced=0 / bluray_compat=0 / constrained_intra=0 / fgo=0 / bframes=10 / b_pyramid=2 / b_adapt=2 / b_bias=0 / direct=3 / weightb=1 / open_gop=0 / weightp=2 / keyint=240 / keyint_min=23 / scenecut=40 / intra_refresh=0 / rc_lookahead=50 / rc=2pass / mbtree=0 / bitrate=7603 / ratetol=1.0 / qcomp=0.60 / qpmin=0 / qpmax=51 / qpstep=4 / cplxblur=20.0 / qblur=0.5 / vbv_maxrate=50000 / vbv_bufsize=62500 / nal_hrd=none / filler=0 / ip_ratio=1.40 / pb_ratio=1.30 / aq=3:0.80
Language                    : English
Default                     : Yes
Forced                      : No

Audio #1
ID                          : 2
Format                      : AC-3
Format/Info                 : Audio Coding 3
Commercial name             : Dolby Digital
Codec ID                    : A_AC3
Duration                    : 2 h 41 min
Bit rate mode               : Constant
Bit rate                    : 640 kb/s
Channel(s)                  : 6 channels
Channel layout              : L R C LFE Ls Rs
Sampling rate               : 48.0 kHz
Frame rate                  : 31.250 FPS (1536 SPF)
Bit depth                   : 16 bits
Compression mode            : Lossy
Stream size                 : 739 MiB (7%)
Title                       : Dub [License]
Language                    : Russian
Service kind                : Complete Main
Default                     : Yes
Forced                      : Yes

Audio #2
ID                          : 3
Format                      : AC-3
Format/Info                 : Audio Coding 3
Commercial name             : Dolby Digital
Codec ID                    : A_AC3
Duration                    : 2 h 41 min
Bit rate mode               : Constant
Bit rate                    : 160 kb/s
Channel(s)                  : 2 channels
Channel layout              : L R
Sampling rate               : 48.0 kHz
Frame rate                  : 31.250 FPS (1536 SPF)
Bit depth                   : 16 bits
Compression mode            : Lossy
Stream size                 : 185 MiB (2%)
Title                       : Dub
Language                    : Ukrainian
Service kind                : Complete Main
Default                     : No
Forced                      : No

Audio #3
ID                          : 4
Format                      : AC-3
Format/Info                 : Audio Coding 3
Commercial name             : Dolby Digital
Codec ID                    : A_AC3
Duration                    : 2 h 41 min
Bit rate mode               : Constant
Bit rate                    : 640 kb/s
Channel(s)                  : 6 channels
Channel layout              : L R C LFE Ls Rs
Sampling rate               : 48.0 kHz
Frame rate                  : 31.250 FPS (1536 SPF)
Bit depth                   : 16 bits
Compression mode            : Lossy
Stream size                 : 739 MiB (7%)
Title                       : Original
Language                    : English
Service kind                : Complete Main
Default                     : No
Forced                      : No

Text #1
ID                          : 5
Format                      : UTF-8
Codec ID                    : S_TEXT/UTF8
Codec ID/Info               : UTF-8 Plain Text
Duration                    : 2 h 36 min
Bit rate                    : 0 b/s
Count of elements           : 16
Stream size                 : 646 Bytes (0%)
Title                       : Forced
Language                    : Russian
Default                     : Yes
Forced                      : Yes

Text #2
ID                          : 6
Format                      : UTF-8
Codec ID                    : S_TEXT/UTF8
Codec ID/Info               : UTF-8 Plain Text
Duration                    : 2 h 40 min
Bit rate                    : 75 b/s
Count of elements           : 1766
Stream size                 : 88.7 KiB (0%)
Title                       : Full
Language                    : Russian
Default                     : No
Forced                      : No

Text #3
ID                          : 7
Format                      : UTF-8
Codec ID                    : S_TEXT/UTF8
Codec ID/Info               : UTF-8 Plain Text
Duration                    : 2 h 40 min
Bit rate                    : 82 b/s
Count of elements           : 1817
Stream size                 : 97.1 KiB (0%)
Title                       : Full
Language                    : Ukrainian
Default                     : No
Forced                      : No

Text #4
ID                          : 8
Format                      : UTF-8
Codec ID                    : S_TEXT/UTF8
Codec ID/Info               : UTF-8 Plain Text
Duration                    : 2 h 40 min
Bit rate                    : 61 b/s
Count of elements           : 2543
Stream size                 : 72.8 KiB (0%)
Title                       : SDH
Language                    : English
Default                     : No
Forced                      : No

Menu
00:00:00.000                : en:00:00:00.000
00:04:49.414                : en:00:04:49.414
00:13:45.199                : en:00:13:45.199
00:18:29.150                : en:00:18:29.150
00:22:00.319                : en:00:22:00.319
00:25:59.349                : en:00:25:59.349
00:28:41.094                : en:00:28:41.094
00:33:45.106                : en:00:33:45.106
00:40:19.334                : en:00:40:19.334
00:49:59.455                : en:00:49:59.455
00:51:48.689                : en:00:51:48.689
00:59:52.255                : en:00:59:52.255
01:02:32.874                : en:01:02:32.874
01:04:28.615                : en:01:04:28.615
01:09:16.736                : en:01:09:16.736
01:17:40.781                : en:01:17:40.781
01:20:25.779                : en:01:20:25.779
01:26:28.433                : en:01:26:28.433
01:32:54.444                : en:01:32:54.444
01:39:58.492                : en:01:39:58.492
01:47:55.219                : en:01:47:55.219
01:53:00.232                : en:01:53:00.232
01:58:09.541                : en:01:58:09.541
02:06:23.993                : en:02:06:23.993
02:11:22.958                : en:02:11:22.958
02:15:50.100                : en:02:15:50.100
02:21:30.190                : en:02:21:30.190
02:29:50.732                : en:02:29:50.732
02:36:28.254                : en:02:36:28.254
02:38:51.230                : en:02:38:51.230



Скриншоты:
[+] Всего файлов в раздаче - 1:
Once.Upon.a.Time.in.Hollywood.2019.Lic.BDRip.1080p.seleZen.mkv10.22 GB

Показать еще раздачи по запросу однажды:
2021-03-01 U Однажды в России [07х18] [эфир от 28.02] (2020) SATRip 592.62 MB ↑ 274 ↓ 16
2021-02-28 U Однажды в России [07х01-17] (2020) WEBRip 1080p 23.90 GB ↑ 24 ↓ 46
2021-02-22 U Однажды в России [07х01-17] (2020) WEBRip 9.96 GB ↑ 67 ↓ 230
2021-02-21 U Однажды в России [07х17] [эфир от 21.02] (2021) SATRip 565.23 MB ↑ 131 ↓ 63
2021-02-16 U Однажды в России [эфир от 14.02] (2021) WEBRip 1080p 1К1.36 GB ↑ 39 ↓ 17
2021-02-15 U Однажды в России [07х16] [эфир от 14.02] (2021) SATRip 565.54 MB ↑ 237 ↓ 28
2021-01-05 U Однажды в России [07х01-14] (2020) WEBRip 720p от Files-x 14.39 GB ↑ 40 ↓ 99

Отзывы
Зарегистрируйтесь чтобы добавить комментарий.
Загрузите программу
  uTorrent.exe
Обратная связь
Copyleft ©