↑↓torrent.by
Поиск
Логин: Регистрация
Пароль: Восстановить пароль

Однажды в… Голливуде / Once Upon a Time... in Hollywood (2019) BDRip-AVC от ExKinoRay | Лицензия, A

Скачать odnazhdy-v-gollivude-once-upon-a-time-in-hollywood-2019-bdrip-avc-ot-exkinoray-licenziya.torrent
U Магнитная ссылка Размер: 3.43 GB Раздают: 481 Качают: 74 Добавлен: 2019-11-30 13:15:25
Однажды в… Голливуде / Once Upon a Time... in Hollywood (2019) BDRip-AVC от ExKinoRay | Лицензия, A

Название: Однажды в… Голливуде
Оригинальное название: Once Upon a Time ... in Hollywood
Год выпуска: 2019
Жанр:  Драма, комедия
Режиссер: Квентин Тарантино
В ролях: Брэд Питт, Леонардо ДиКаприо, Марго Робби, Майя Хоук, Остин Роберт Батлер, Сидни Свини, Маргарет Куэлли, Дакота Фэннинг, Тимоти Олифант, Аль Пачино, Эмиль Хирш, Джулия Баттерз, Брюс Дерн

Описание:   Фильм повествует о череде событий, произошедших в Голливуде в 1969 году, на закате его «золотого века». По сюжету, известный ТВ актер Рик Далтон и его дублер Клифф Бут пытаются найти свое место в стремительно меняющемся мире киноиндустрии.

Страна: Великобритания, США, Китай
Студия: Bona Film Group, Heyday Films, Sony Pictures Entertainment
Продолжительность: 02:41:29
Перевод: Дублированный | Лицензия
Авторский (одноголосый, закадровый) | Андрей Дольский

Качество: BDRip-AVC
Видео: MPEG-4 AVC, 1024x426, 1722 Кbit/s, 23.976 fps
Аудио #01: 48 kHz, AC3, 5.1, 448 Kbps | Лицензия | RUS |
Аудио #02: 48 kHz, AC3, 2.0, 256 Kbps | AVO | RUS |
Аудио #03: 48 kHz, AC3, 2.0, 160 Kbps | iTunes | UKR |
Аудио #04: 48 kHz, AC3, 5.1, 448 Kbps | Оригинал |  ENG |
Субтитры: Русские (Forced, full), украинские (Full), английские

Релиз:

Автор релиза:


[+] ОтчетМедиаИнфо
General
Unique ID                                : 237413751438286499001887796253268616447 (0xB29C39ADF1C214D7B00CF2343C43A4FF)
Complete name                            : F:Once.Upon.a.Time.in.Hollywood.2019.2xRus.BDRip.AVC.ExKinoRay.mkv
Format                                   : Matroska
Format version                           : Version 2
File size                                : 3.43 GiB
Duration                                 : 2 h 41 min
Overall bit rate                         : 3 040 kb/s
Movie name                               : Once Upon a Time in Hollywood 2019 from ExKinoRay
Encoded date                             : UTC 2019-11-29 22:14:45
Writing application                      : mkvmerge v5.6.0 ('Kenya Kane') built on May 27 2012 16:44:04
Writing library                          : libebml v1.2.3 + libmatroska v1.3.0

Video
ID                                       : 1
Format                                   : AVC
Format/Info                              : Advanced Video Codec
Format profile                           : High@L4.1
Format settings, CABAC                   : Yes
Format settings, ReFrames                : 11 frames
Codec ID                                 : V_MPEG4/ISO/AVC
Duration                                 : 2 h 41 min
Bit rate                                 : 1 722 kb/s
Width                                    : 1 024 pixels
Height                                   : 426 pixels
Display aspect ratio                     : 2.40:1
Frame rate mode                          : Constant
Frame rate                               : 23.976 (23976/1000) FPS
Color space                              : YUV
Chroma subsampling                       : 4:2:0
Bit depth                                : 8 bits
Scan type                                : Progressive
Bits/(Pixel*Frame)                       : 0.165
Stream size                              : 1.88 GiB (55%)
Title                                    : Enigma
Writing library                          : x264 core 152 r2851 ba24899
Encoding settings                        : cabac=1 / ref=11 / deblock=1:-2:-2 / analyse=0x3:0x113 / me=umh / subme=10 / psy=1 / psy_rd=1.00:0.03 / mixed_ref=1 / me_range=32 / chroma_me=1 / trellis=2 / 8x8dct=1 / cqm=0 / deadzone=21,11 / fast_pskip=0 / chroma_qp_offset=-3 / threads=12 / lookahead_threads=3 / sliced_threads=0 / nr=0 / decimate=0 / interlaced=0 / bluray_compat=0 / constrained_intra=0 / bframes=10 / b_pyramid=2 / b_adapt=2 / b_bias=0 / direct=3 / weightb=1 / open_gop=0 / weightp=2 / keyint=240 / keyint_min=23 / scenecut=40 / intra_refresh=0 / rc=2pass / mbtree=0 / bitrate=1722 / ratetol=1.0 / qcomp=0.60 / qpmin=0 / qpmax=51 / qpstep=4 / cplxblur=20.0 / qblur=0.5 / ip_ratio=1.40 / pb_ratio=1.30 / aq=1:1.00
Language                                 : English
Default                                  : Yes
Forced                                   : No
Color range                              : Limited
Color primaries                          : BT.709
Transfer characteristics                 : BT.709
Matrix coefficients                      : BT.709

Audio #1
ID                                       : 2
Format                                   : AC-3
Format/Info                              : Audio Coding 3
Mode extension                           : CM (complete main)
Format settings, Endianness              : Big
Codec ID                                 : A_AC3
Duration                                 : 2 h 41 min
Bit rate mode                            : Constant
Bit rate                                 : 448 kb/s
Channel(s)                               : 6 channels
Channel positions                        : Front: L C R, Side: L R, LFE
Sampling rate                            : 48.0 kHz
Frame rate                               : 31.250 FPS (1536 spf)
Compression mode                         : Lossy
Stream size                              : 517 MiB (15%)
Title                                    : Dub (Blu-Ray)
Language                                 : Russian
Default                                  : Yes
Forced                                   : No

Audio #2
ID                                       : 3
Format                                   : AC-3
Format/Info                              : Audio Coding 3
Mode extension                           : CM (complete main)
Format settings, Endianness              : Big
Codec ID                                 : A_AC3
Duration                                 : 2 h 41 min
Bit rate mode                            : Constant
Bit rate                                 : 256 kb/s
Channel(s)                               : 2 channels
Channel positions                        : Front: L R
Sampling rate                            : 48.0 kHz
Frame rate                               : 31.250 FPS (1536 spf)
Compression mode                         : Lossy
Stream size                              : 296 MiB (8%)
Title                                    : AVO (Doljskiy)
Language                                 : Russian
Default                                  : No
Forced                                   : No

Audio #3
ID                                       : 4
Format                                   : AC-3
Format/Info                              : Audio Coding 3
Mode extension                           : CM (complete main)
Format settings, Endianness              : Big
Codec ID                                 : A_AC3
Duration                                 : 2 h 41 min
Bit rate mode                            : Constant
Bit rate                                 : 160 kb/s
Channel(s)                               : 2 channels
Channel positions                        : Front: L R
Sampling rate                            : 48.0 kHz
Frame rate                               : 31.250 FPS (1536 spf)
Compression mode                         : Lossy
Stream size                              : 185 MiB (5%)
Title                                    : Dub
Language                                 : Ukrainian
Default                                  : No
Forced                                   : No

Audio #4
ID                                       : 5
Format                                   : AC-3
Format/Info                              : Audio Coding 3
Mode extension                           : CM (complete main)
Format settings, Endianness              : Big
Codec ID                                 : A_AC3
Duration                                 : 2 h 41 min
Bit rate mode                            : Constant
Bit rate                                 : 448 kb/s
Channel(s)                               : 6 channels
Channel positions                        : Front: L C R, Side: L R, LFE
Sampling rate                            : 48.0 kHz
Frame rate                               : 31.250 FPS (1536 spf)
Compression mode                         : Lossy
Stream size                              : 517 MiB (15%)
Language                                 : English
Default                                  : No
Forced                                   : No

Text #1
ID                                       : 6
Format                                   : UTF-8
Codec ID                                 : S_TEXT/UTF8
Codec ID/Info                            : UTF-8 Plain Text
Title                                    : Forced
Language                                 : Russian
Default                                  : Yes
Forced                                   : No

Text #2
ID                                       : 7
Format                                   : UTF-8
Codec ID                                 : S_TEXT/UTF8
Codec ID/Info                            : UTF-8 Plain Text
Title                                    : Full
Language                                 : Russian
Default                                  : No
Forced                                   : No

Text #3
ID                                       : 8
Format                                   : UTF-8
Codec ID                                 : S_TEXT/UTF8
Codec ID/Info                            : UTF-8 Plain Text
Title                                    : Full
Language                                 : Ukrainian
Default                                  : No
Forced                                   : No

Text #4
ID                                       : 9
Format                                   : UTF-8
Codec ID                                 : S_TEXT/UTF8
Codec ID/Info                            : UTF-8 Plain Text
Title                                    : SDH
Language                                 : English
Default                                  : No
Forced                                   : No

Menu
00:00:00.000                             : en:00:00:00.000
00:04:49.414                             : en:00:04:49.414
00:13:45.199                             : en:00:13:45.199
00:18:29.150                             : en:00:18:29.150
00:22:00.319                             : en:00:22:00.319
00:25:59.349                             : en:00:25:59.349
00:28:41.094                             : en:00:28:41.094
00:33:45.106                             : en:00:33:45.106
00:40:19.334                             : en:00:40:19.334
00:49:59.455                             : en:00:49:59.455
00:51:48.689                             : en:00:51:48.689
00:59:52.255                             : en:00:59:52.255
01:02:32.874                             : en:01:02:32.874
01:04:28.615                             : en:01:04:28.615
01:09:16.736                             : en:01:09:16.736
01:17:40.781                             : en:01:17:40.781
01:20:25.779                             : en:01:20:25.779
01:26:28.433                             : en:01:26:28.433
01:32:54.444                             : en:01:32:54.444
01:39:58.492                             : en:01:39:58.492
01:47:55.219                             : en:01:47:55.219
01:53:00.232                             : en:01:53:00.232
01:58:09.541                             : en:01:58:09.541
02:06:23.993                             : en:02:06:23.993
02:11:22.958                             : en:02:11:22.958
02:15:50.100                             : en:02:15:50.100
02:21:30.190                             : en:02:21:30.190
02:29:50.732                             : en:02:29:50.732
02:36:28.254                             : en:02:36:28.254
02:38:51.230                             : en:02:38:51.230




Скриншоты:
[+] Всего файлов в раздаче - 1:
Once.Upon.a.Time.in.Hollywood.2019.2xRus.BDRip.AVC.ExKinoRay.mkv3.43 GB

Показать еще раздачи по запросу однажды:
2021-03-01 U Однажды в России [07х18] [эфир от 28.02] (2020) SATRip 592.62 MB ↑ 274 ↓ 16
2021-02-28 U Однажды в России [07х01-17] (2020) WEBRip 1080p 23.90 GB ↑ 24 ↓ 46
2021-02-22 U Однажды в России [07х01-17] (2020) WEBRip 9.96 GB ↑ 67 ↓ 230
2021-02-21 U Однажды в России [07х17] [эфир от 21.02] (2021) SATRip 565.23 MB ↑ 131 ↓ 63
2021-02-16 U Однажды в России [эфир от 14.02] (2021) WEBRip 1080p 1К1.36 GB ↑ 39 ↓ 17
2021-02-15 U Однажды в России [07х16] [эфир от 14.02] (2021) SATRip 565.54 MB ↑ 237 ↓ 28
2021-01-05 U Однажды в России [07х01-14] (2020) WEBRip 720p от Files-x 14.39 GB ↑ 40 ↓ 99

Отзывы
Зарегистрируйтесь чтобы добавить комментарий.
Загрузите программу
  uTorrent.exe
Обратная связь
Copyleft ©