↑↓Torrent.by
Поиск
Логин: Регистрация
Пароль: Восстановить пароль

АРМЕН и Я (2018) WEB-DL 1080p | iTunes

Скачать armen-i-ya-2018-web-dl-1080p-itunes.torrent
U Магнитная ссылка Размер: 2.71 GB Раздают: 51 Качают: 15 Добавлен: 2019-12-01 06:16:55
АРМЕН и Я (2018) WEB-DL 1080p | iTunes

Название: АРМЕН и Я
Год выпуска: 2018
Жанр:  Драма
Режиссёр: Максим Айрапетов
В ролях: Сос Джанибекян, Микаэл Арамян, Ованнес Азоян, Карина Гондагсазян, Арсен Григорян, Самвел Топалян, Сатик Хахназарян, Вруйр Арутюнян

Описание:
История двух друзей, чьи дороги разошлись много лет назад. Но одна случайная встреча с Ануш, в которую Левон был влюблен в юности, возвращает его в солнечный Ереван, где раскрываются тайны прошлого.

Страна: Армения, Россия
Студия: Nika Production, Pitchers Studio
Продолжительность: 01:17:30
Перевод: Профессиональный (двухголосый, закадровый) | iTunes

Файл
Формат: MKV
Качество: WEB-DL 1080p
Видео: 1920x806 (2,40:1), 25 fps, MPEG-4 AVC ~ 4619 Кbps avg, 0.119 bit/pixel
Аудио: AC3, 48 kHz, 6 ch, ~384.00 kbps avg | русский | iTunes

Субтитры: Отсутствуют
Семпл


[+] Инфо-файл
Общее
Уникальный идентификатор                 : 11925004727208835031367801046299218018 (0x8F8AC2061C65AD775FECBC569AA9062)
Полное имя                               : F:ARMENIYA (2018) WEB-DL 1080p.mkv
Формат                                   : Matroska
Версия формата                           : Version 4
Размер файла                             : 2,71 Гбайт
Продолжительность                        : 1 ч. 17 м.
Общий поток                              : 5005 Кбит/сек
Название фильма                          : ARMENIYA (2018) WEB-DL 1080p
Дата кодирования                         : UTC 2019-11-30 04:44:02
Программа кодирования                    : mkvmerge v38.0.0 ('The Silent Type') 64-bit
Библиотека кодирования                   : libebml v1.3.9 + libmatroska v1.5.2
Обложка                                  : Yes
Attachments                              : cover.jpg

Видео
Идентификатор                            : 1
Формат                                   : AVC
Формат/Информация                        : Advanced Video Codec
Профиль формата                          : High@L4
Настройки формата                        : CABAC / 5 Ref Frames
Параметр CABAC формата                   : Да
Параметр RefFrames формата               : 5 кадров
Идентификатор кодека                     : V_MPEG4/ISO/AVC
Продолжительность                        : 1 ч. 17 м.
Битрейт                                  : 4619 Кбит/сек
Ширина                                   : 1920 пикселей
Высота                                   : 806 пикселей
Соотношение сторон                       : 2,40:1
Режим частоты кадров                     : Постоянный
Частота кадров                           : 25,000 кадров/сек
Цветовое пространство                    : YUV
Субдискретизация насыщенности            : 4:2:0
Битовая глубина                          : 8 бит
Тип развёртки                            : Прогрессивная
Бит/(Пиксели*Кадры)                      : 0.119
Размер потока                            : 2,50 Гбайт (92%)
Заголовок                                : #stillet
Язык                                     : English
Default                                  : Да
Forced                                   : Нет
Цветовой диапазон                        : Limited
Основные цвета                           : BT.709
Характеристики трансфера                 : BT.709
Коэффициенты матрицы                     : BT.709

Аудио
Идентификатор                            : 2
Формат                                   : AC-3
Формат/Информация                        : Audio Coding 3
Коммерческое название                    : Dolby Digital
Идентификатор кодека                     : A_AC3
Продолжительность                        : 1 ч. 17 м.
Вид битрейта                             : Постоянный
Битрейт                                  : 384 Кбит/сек
Каналы                                   : 6 каналов
ChannelLayout                            : L R C LFE Ls Rs
Частота                                  : 48,0 КГц
Частота кадров                           : 31,250 кадров/сек (1536 SPF)
Метод сжатия                             : С потерями
Задержка видео                           : -40 мс.
Размер потока                            : 213 Мбайт (8%)
Заголовок                                : iTunes | ARMENIYA (2018) WEB-DL 1080p
Язык                                     : Russian
Default                                  : Да
Forced                                   : Нет

Меню
00:00:00.000                             : en:Глава 1
00:07:07.320                             : en:Глава 2
00:13:15.160                             : en:Глава 3
00:20:21.119                             : en:Глава 4
00:28:09.839                             : en:Глава 5
00:34:10.198                             : en:Глава 6
00:40:14.397                             : en:Глава 7
00:47:41.317                             : en:Глава 8
00:53:35.317                             : en:Глава 9
01:00:34.476                             : en:Глава 10
01:06:32.155                             : en:Глава 11
01:10:56.754                             : en:Глава 12



Скриншоты:
[+] Всего файлов в раздаче - 1:
ARMENIYA (2018) WEB-DL 1080p.mkv2.71 GB

Похожие раздачи по запросу - армен:
2019-12-01 U АРМЕН и Я (2018) WEB-DLRip | iTunes 1К1.47 GB ↑ 70 ↓ 18

Отзывы
Зарегистрируйтесь чтобы добавить комментарий.
Обратная связь
Copyleft ©