↑↓Torrent.by
Поиск
Логин: Регистрация
Пароль: Восстановить пароль

Оно 2 / It Chapter Two (2019) BDRip-AVC от OlLanDGroup | iTunes

Скачать ono-2-it-chapter-two-2019-bdrip-avc-ot-ollandgroup-itunes.torrent
U Магнитная ссылка Размер: 2.57 GB Раздают: 56 Качают: 16 Добавлен: 2019-12-02 06:45:31
Оно 2 / It Chapter Two (2019) BDRip-AVC от OlLanDGroup | iTunes

Оно 2 / It Chapter Two
«You'll Float Again»

Год выпуска: 2019
Страна: Канада, США
Производство: KatzSmith Productions, Lin Pictures, New Line Cinema
Жанр:  Ужасы, фэнтези, драма

Режиссёр: Андрес Мускетти
В ролях: Джессика Честейн, Джеймс МакЭвой, Билл Хэйдер, Айзая Мустафа, Джей Райан, Джеймс Рэнсон, Энди Бин, Билл Скарсгард, Джейден Мартелл, Уайатт Олефф, Джек Дилан Грейзер, Финн Вулфард, София Лиллис, Чоузен Джейкобс

Перевод: Дублированный | [iTunes]
Субтитры: Русские (форс., полные)
Реклама: Отсутствует

Описание: Проходит 27 лет после первой встречи ребят с демоническим Пеннивайзом. Они уже выросли, и у каждого своя жизнь. Но неожиданно их спокойное существование нарушает странный телефонный звонок, который заставляет старых друзей вновь собраться вместе.

Качество: BDRip-AVC | BDRemux | It.Chapter.Two.2019.BDREMUX.1080p.seleZen
Продолжительность: 02:49:25

Формат: MKV
Видео кодек: MPEG-4 AVC
Аудио кодек: AC3
Видео: 1024x428 (1.85:1), 23,976 fps, x264 ~1 795 kbps avg, 0.171 bit/pixel
Аудио: 48 kHz, AC3 Dolby Digital, 3/2 (L,C,R,l,r) + LFE ch, ~384.00 kbps avg | RUS (iTunes)

Дата премьеры (мир): 26 августа 2019
Дата премьеры (РФ): 5 сентября 2019, «Каро-Премьер»
Цифровой релиз: 22 ноября 2019, «Warner Bros.»

Релиз:


[+] MediaInfo

Общее
Уникальный идентификатор                 : 139727819842842485723253749172310435115 (0x691E996721ED8AE025718E2EFC28E52B)
Полное имя                               : F:OlLanDGroupIt.Chapter.Two.2019.BDRip(AVC).OllanDGroup.mkv
Формат                                   : Matroska
Версия формата                           : Version 4 / Version 2
Размер файла                             : 2,57 Гбайт
Продолжительность                        : 2 ч. 49 м.
Общий поток                              : 2170 Кбит/сек
Название фильма                          : It Chapter Two 2019   #TorpedoUK#
Дата кодирования                         : UTC 2019-12-01 11:13:36
Программа кодирования                    : mkvmerge v29.0.0 ('Like It Or Not') 64-bit
Библиотека кодирования                   : libebml v1.3.6 + libmatroska v1.4.9

Видео
Идентификатор                            : 1
Формат                                   : AVC
Формат/Информация                        : Advanced Video Codec
Профиль формата                          : High@L4.1
Параметр CABAC формата                   : Да
Параметр ReFrames формата                : 10 кадров
Идентификатор кодека                     : V_MPEG4/ISO/AVC
Продолжительность                        : 2 ч. 49 м.
Битрейт                                  : 1785 Кбит/сек
Ширина                                   : 1024 пикселя
Высота                                   : 428 пикселей
Соотношение сторон                       : 2,40:1
Режим частоты кадров                     : Постоянный
Частота кадров                           : 23,976 (24000/1001) кадра/сек
Цветовое пространство                    : YUV
Субдискретизация насыщенности            : 4:2:0
Битовая глубина                          : 8 бит
Тип развёртки                            : Прогрессивная
Бит/(Пиксели*Кадры)                      : 0.170
Размер потока                            : 2,11 Гбайт (82%)
Библиотека кодирования                   : x264 core 146 r2538 121396c
Настройки программы                      : cabac=1 / ref=10 / deblock=1:-2:-3 / analyse=0x3:0x113 / me=umh / subme=11 / psy=1 / psy_rd=0.95:0.07 / mixed_ref=1 / me_range=48 / chroma_me=1 / trellis=2 / 8x8dct=1 / cqm=0 / deadzone=21,11 / fast_pskip=1 / chroma_qp_offset=-6 / threads=6 / lookahead_threads=1 / sliced_threads=0 / nr=0 / decimate=1 / interlaced=0 / bluray_compat=0 / constrained_intra=0 / bframes=11 / b_pyramid=2 / b_adapt=2 / b_bias=0 / direct=3 / weightb=1 / open_gop=0 / weightp=2 / keyint=240 / keyint_min=23 / scenecut=40 / intra_refresh=0 / rc_lookahead=40 / rc=2pass / mbtree=0 / bitrate=1785 / ratetol=1.0 / qcomp=0.60 / qpmin=0 / qpmax=69 / qpstep=4 / cplxblur=20.0 / qblur=0.5 / vbv_maxrate=50000 / vbv_bufsize=62500 / nal_hrd=none / filler=0 / ip_ratio=1.40 / pb_ratio=1.30 / aq=1:1.00
Язык                                     : English
Default                                  : Да
Forced                                   : Нет

Аудио
Идентификатор                            : 2
Формат                                   : AC-3
Формат/Информация                        : Audio Coding 3
Расширение режима                        : CM (complete main)
Параметр Endianness формата              : Big
Идентификатор кодека                     : A_AC3
Продолжительность                        : 2 ч. 49 м.
Вид битрейта                             : Постоянный
Битрейт                                  : 384 Кбит/сек
Каналы                                   : 6 каналов
Расположение каналов                     : Front: L C R, Side: L R, LFE
Частота                                  : 48,0 КГц
Частота кадров                           : 31,250 кадров/сек (1536 spf)
Битовая глубина                          : 16 бит
Метод сжатия                             : С потерями
Размер потока                            : 465 Мбайт (18%)
Заголовок                                : DUB [iTunes]
Язык                                     : Russian
Default                                  : Да
Forced                                   : Да

Текст #1
Идентификатор                            : 3
Формат                                   : UTF-8
Идентификатор кодека                     : S_TEXT/UTF8
Идентификатор кодека/Информация          : UTF-8 Plain Text
Продолжительность                        : 2 ч. 48 м.
Битрейт                                  : 1 бит/сек
Count of elements                        : 68
Размер потока                            : 2,40 Кбайт (0%)
Заголовок                                : Forced
Язык                                     : Russian
Default                                  : Да
Forced                                   : Нет

Текст #2
Идентификатор                            : 4
Формат                                   : UTF-8
Идентификатор кодека                     : S_TEXT/UTF8
Идентификатор кодека/Информация          : UTF-8 Plain Text
Продолжительность                        : 2 ч. 48 м.
Битрейт                                  : 76 бит/сек
Count of elements                        : 2331
Размер потока                            : 94,7 Кбайт (0%)
Заголовок                                : Full
Язык                                     : Russian
Default                                  : Нет
Forced                                   : Нет

Меню
00:00:00.000                             : en:Chapter 01
00:09:10.341                             : en:Chapter 02
00:19:06.354                             : en:Chapter 03
00:27:00.744                             : en:Chapter 04
00:37:51.227                             : en:Chapter 05
00:46:19.986                             : en:Chapter 06
00:55:46.802                             : en:Chapter 07
01:05:36.474                             : en:Chapter 08
01:17:19.134                             : en:Chapter 09
01:29:21.565                             : en:Chapter 10
01:41:02.974                             : en:Chapter 11
01:49:11.336                             : en:Chapter 12
01:59:33.833                             : en:Chapter 13
02:05:31.774                             : en:Chapter 14
02:14:25.933                             : en:Chapter 15
02:22:43.889                             : en:Chapter 16
02:32:57.168                             : en:Chapter 17
02:42:15.643                             : en:Chapter 18
02:44:52.508                             : en:Chapter 19



Скриншоты:
[+] Всего файлов в раздаче - 1:
It.Chapter.Two.2019.BDRip(AVC).OllanDGroup.mkv2.57 GB

Показать еще раздачи по запросу chapter:
2019-12-04 U Оно 2 / It Chapter Two (2019) BDRip-HEVC 1080p от HEVC-CLUB | iTunes 8.14 GB ↑ 69 ↓ 42
2019-12-04 U Оно 2 / It Chapter Two (2019) HDRip от Scarabey | iTunes 1.45 GB ↑ 43 ↓ 13
2019-12-02 U Оно 2 / It Chapter Two (2019) BDRip от MegaPeer | iTunes 2.83 GB ↑ 28 ↓ 10
2019-12-02 U Оно 2 / It Chapter Two (2019) UHD BDRemux 2160p от селезень | 4K | HDR | Dolby Vision TV | D, P | iTunes 63.98 GB ↑ 41 ↓ 40
2019-12-02 U Оно 2 / It Chapter Two (2019) BDRemux 1080p от селезень | D, P | iTunes 29.49 GB ↑ 45 ↓ 17
2019-12-02 U Оно 2 / It Chapter Two (2019) BDRip от MegaPeer | iTunes 2.18 GB ↑ 48 ↓ 7
2019-12-02 U Оно 2 / It Chapter Two (2019) BDRip 720p от селезень | D, P | iTunes 6.23 GB ↑ 68 ↓ 19

Отзывы
Зарегистрируйтесь чтобы добавить комментарий.
Обратная связь
Copyleft ©