↑↓Torrent.by
Поиск
Логин: Регистрация
Пароль: Восстановить пароль

Оно 2 / It Chapter Two (2019) BDRemux 1080p от селезень | D, P | iTunes

Скачать ono-2-it-chapter-two-2019-bdremux-1080p-ot-selezen-d-p-itunes.torrent
U Магнитная ссылка Размер: 29.49 GB Раздают: 45 Качают: 17 Добавлен: 2019-12-02 06:45:56
Оно 2 / It Chapter Two (2019) BDRemux 1080p от селезень | D, P | iTunes

Название: Оно 2
Оригинальное название: It Chapter Two
Год выхода: 2019
Жанр: Ужасы, экранизация
Режиссер: Андрес Мускетти
В ролях: Джессика Честейн, Джеймс МакЭвой, Билл Хэйдер, Айзая Мустафа, Джей Райан, Джеймс Рэнсон, Энди Бин, Билл Скарсгард, Джейден Мартелл, Уайатт Олефф, Джек Дилан Грейзер, Финн Вулфард, София Лиллис, Чоузен Джейкобс, Джереми Рэй Тейлор, Тич Грант, Николас Хэмилтон, Хавьер Ботет, Тейлор Фрэй, Молли Эткинсон, Люк Росслер, Джесс Вейкслер

О фильме: Проходит 27 лет после первой встречи ребят с демоническим Пеннивайзом. Они уже выросли, и у каждого своя жизнь. Но неожиданно их спокойное существование нарушает странный телефонный звонок, который заставляет их вновь собраться вместе.

Страна: Канада, США
Студия: KatzSmith Productions, Lin Pictures, New Line Cinema
Продолжительность: 02:49:25
Перевод(ы):
#1: Дублированный | iTunes
#2: Профессиональный многоголосый | HDRezka Studio

Качество: BDRemux 1080p
Видео: MPEG-4 AVC, 1920x1080, 19.8 Mbit/s, 23.976 fps
Аудио #01: 48 kHz, AC3, 5.1, 384 Kbps | Дублированный | RUS |
Аудио #02: 48 kHz, AC3, 2.0, 192 Kbps | HDRezka Studio | RUS |
Аудио #03: 48 kHz, AC3, 5.1, 384 Kbps | Дублированный | UKR |
Аудио #04: 48 kHz, TrueHD, 7.1, 3408 Kbps | Оригинал |  ENG |
Аудио #05: 48 kHz, AC3, 5.1, 640 Kbps | Оригинал |  ENG |
Субтитры: Русские (Forced, 2 x full), украинские (Forced), английские

Примечание: В озвучке от HDRezka Studio присутствует ненормативная лексика.

Релиз:


[+] MI
General
Unique ID                   : 14996329793275789742936779300809173367 (0xB483024BB41162E23984320BBA36977)
Complete name               : F:Video111It.Chapter.Two.2019.BDREMUX.1080p.seleZen.mkv
Format                      : Matroska
Format version              : Version 4
File size                   : 29.5 GiB
Duration                    : 2 h 49 min
Overall bit rate mode       : Variable
Overall bit rate            : 24.9 Mb/s
Movie name                  : It Chapter Two 2019 from селезень
Encoded date                : UTC 2019-12-01 06:19:04
Writing application         : mkvmerge v40.0.0 ('Old Town Road + Pony') 64-bit
Writing library             : libebml v1.3.9 + libmatroska v1.5.2

Video
ID                          : 1
Format                      : AVC
Format/Info                 : Advanced Video Codec
Format profile              : High@L4.1
Format settings             : CABAC / 4 Ref Frames
Format settings, CABAC      : Yes
Format settings, Reference  : 4 frames
Codec ID                    : V_MPEG4/ISO/AVC
Duration                    : 2 h 49 min
Bit rate mode               : Variable
Bit rate                    : 19.8 Mb/s
Maximum bit rate            : 26.0 Mb/s
Width                       : 1 920 pixels
Height                      : 1 080 pixels
Display aspect ratio        : 16:9
Frame rate mode             : Constant
Frame rate                  : 23.976 (24000/1001) FPS
Color space                 : YUV
Chroma subsampling          : 4:2:0
Bit depth                   : 8 bits
Scan type                   : Progressive
Bits/(Pixel*Frame)          : 0.399
Stream size                 : 23.5 GiB (80%)
Language                    : English
Default                     : Yes
Forced                      : No

Audio #1
ID                          : 2
Format                      : AC-3
Format/Info                 : Audio Coding 3
Commercial name             : Dolby Digital
Codec ID                    : A_AC3
Duration                    : 2 h 49 min
Bit rate mode               : Constant
Bit rate                    : 384 kb/s
Channel(s)                  : 6 channels
Channel layout              : L R C LFE Ls Rs
Sampling rate               : 48.0 kHz
Frame rate                  : 31.250 FPS (1536 SPF)
Bit depth                   : 16 bits
Compression mode            : Lossy
Stream size                 : 465 MiB (2%)
Title                       : Dub [iTunes]
Language                    : Russian
Service kind                : Complete Main
Default                     : Yes
Forced                      : Yes

Audio #2
ID                          : 3
Format                      : AC-3
Format/Info                 : Audio Coding 3
Commercial name             : Dolby Digital
Codec ID                    : A_AC3
Duration                    : 2 h 49 min
Bit rate mode               : Constant
Bit rate                    : 192 kb/s
Channel(s)                  : 2 channels
Channel layout              : L R
Sampling rate               : 48.0 kHz
Frame rate                  : 31.250 FPS (1536 SPF)
Bit depth                   : 16 bits
Compression mode            : Lossy
Stream size                 : 233 MiB (1%)
Title                       : MVO [HDRezka Studio]
Language                    : Russian
Service kind                : Complete Main
Default                     : No
Forced                      : No

Audio #3
ID                          : 4
Format                      : AC-3
Format/Info                 : Audio Coding 3
Commercial name             : Dolby Digital
Codec ID                    : A_AC3
Duration                    : 2 h 49 min
Bit rate mode               : Constant
Bit rate                    : 384 kb/s
Channel(s)                  : 6 channels
Channel layout              : L R C LFE Ls Rs
Sampling rate               : 48.0 kHz
Frame rate                  : 31.250 FPS (1536 SPF)
Bit depth                   : 16 bits
Compression mode            : Lossy
Stream size                 : 465 MiB (2%)
Title                       : Dub
Language                    : Ukrainian
Service kind                : Complete Main
Default                     : No
Forced                      : No

Audio #4
ID                          : 5
Format                      : MLP FBA 16-ch
Format/Info                 : Meridian Lossless Packing FBA with 16-channel presentation
Commercial name             : Dolby TrueHD with Dolby Atmos
Codec ID                    : A_TRUEHD
Duration                    : 2 h 49 min
Bit rate mode               : Variable
Bit rate                    : 3 408 kb/s
Maximum bit rate            : 5 559 kb/s
Channel(s)                  : 8 channels
Channel layout              : L R C LFE Ls Rs Lb Rb
Sampling rate               : 48.0 kHz
Frame rate                  : 1 200.000 FPS (40 SPF)
Compression mode            : Lossless
Stream size                 : 4.03 GiB (14%)
Title                       : Original
Language                    : English
Default                     : No
Forced                      : No
Number of dynamic objects   : 15
Bed channel count           : 1 channel
Bed channel configuration   : LFE

Audio #5
ID                          : 6
Format                      : AC-3
Format/Info                 : Audio Coding 3
Commercial name             : Dolby Digital
Codec ID                    : A_AC3
Duration                    : 2 h 49 min
Bit rate mode               : Constant
Bit rate                    : 640 kb/s
Channel(s)                  : 6 channels
Channel layout              : L R C LFE Ls Rs
Sampling rate               : 48.0 kHz
Frame rate                  : 31.250 FPS (1536 SPF)
Bit depth                   : 16 bits
Compression mode            : Lossy
Stream size                 : 776 MiB (3%)
Language                    : English
Service kind                : Complete Main
Default                     : No
Forced                      : No

Text #1
ID                          : 7
Format                      : UTF-8
Codec ID                    : S_TEXT/UTF8
Codec ID/Info               : UTF-8 Plain Text
Duration                    : 2 h 48 min
Bit rate                    : 1 b/s
Count of elements           : 68
Stream size                 : 2.40 KiB (0%)
Title                       : Forced
Language                    : Russian
Default                     : Yes
Forced                      : Yes

Text #2
ID                          : 8
Format                      : UTF-8
Codec ID                    : S_TEXT/UTF8
Codec ID/Info               : UTF-8 Plain Text
Duration                    : 2 h 48 min
Bit rate                    : 76 b/s
Count of elements           : 2331
Stream size                 : 94.7 KiB (0%)
Title                       : Full
Language                    : Russian
Default                     : No
Forced                      : No

Text #3
ID                          : 9
Format                      : UTF-8
Codec ID                    : S_TEXT/UTF8
Codec ID/Info               : UTF-8 Plain Text
Duration                    : 2 h 44 min
Bit rate                    : 72 b/s
Count of elements           : 1705
Stream size                 : 87.9 KiB (0%)
Title                       : Full [FOCS]
Language                    : Russian
Default                     : No
Forced                      : No

Text #4
ID                          : 10
Format                      : UTF-8
Codec ID                    : S_TEXT/UTF8
Codec ID/Info               : UTF-8 Plain Text
Duration                    : 2 h 48 min
Bit rate                    : 1 b/s
Count of elements           : 66
Stream size                 : 2.33 KiB (0%)
Title                       : Forced
Language                    : Ukrainian
Default                     : No
Forced                      : No

Text #5
ID                          : 11
Format                      : UTF-8
Codec ID                    : S_TEXT/UTF8
Codec ID/Info               : UTF-8 Plain Text
Duration                    : 2 h 44 min
Bit rate                    : 60 b/s
Count of elements           : 2828
Stream size                 : 72.8 KiB (0%)
Title                       : SDH
Language                    : English
Default                     : No
Forced                      : No

Menu
00:00:00.000                : en:Chapter 01
00:09:10.341                : en:Chapter 02
00:19:06.354                : en:Chapter 03
00:27:00.744                : en:Chapter 04
00:37:51.227                : en:Chapter 05
00:46:19.986                : en:Chapter 06
00:55:46.802                : en:Chapter 07
01:05:36.474                : en:Chapter 08
01:17:19.134                : en:Chapter 09
01:29:21.565                : en:Chapter 10
01:41:02.974                : en:Chapter 11
01:49:11.336                : en:Chapter 12
01:59:33.833                : en:Chapter 13
02:05:31.774                : en:Chapter 14
02:14:25.933                : en:Chapter 15
02:22:43.889                : en:Chapter 16
02:32:57.168                : en:Chapter 17
02:42:15.643                : en:Chapter 18
02:44:52.508                : en:Chapter 19



Скриншоты:
[+] Всего файлов в раздаче - 1:
It.Chapter.Two.2019.BDREMUX.1080p.seleZen.mkv29.49 GB

Показать еще раздачи по запросу chapter:
2019-12-04 U Оно 2 / It Chapter Two (2019) BDRip-HEVC 1080p от HEVC-CLUB | iTunes 8.14 GB ↑ 68 ↓ 42
2019-12-04 U Оно 2 / It Chapter Two (2019) HDRip от Scarabey | iTunes 1.45 GB ↑ 41 ↓ 13
2019-12-02 U Оно 2 / It Chapter Two (2019) BDRip от MegaPeer | iTunes 2.83 GB ↑ 28 ↓ 10
2019-12-02 U Оно 2 / It Chapter Two (2019) UHD BDRemux 2160p от селезень | 4K | HDR | Dolby Vision TV | D, P | iTunes 63.98 GB ↑ 41 ↓ 40
2019-12-02 U Оно 2 / It Chapter Two (2019) BDRip-AVC от OlLanDGroup | iTunes 2.57 GB ↑ 56 ↓ 16
2019-12-02 U Оно 2 / It Chapter Two (2019) BDRip от MegaPeer | iTunes 2.18 GB ↑ 48 ↓ 7
2019-12-02 U Оно 2 / It Chapter Two (2019) BDRip 720p от селезень | D, P | iTunes 6.23 GB ↑ 68 ↓ 19

Отзывы
Зарегистрируйтесь чтобы добавить комментарий.
Обратная связь
Copyleft ©