↑↓Torrent.by
Поиск
Логин: Регистрация
Пароль: Восстановить пароль

Оно 2 / It Chapter Two (2019) UHD BDRemux 2160p от селезень | 4K | HDR | Dolby Vision TV | D, P | iTunes

Скачать ono-2-it-chapter-two-2019-uhd-bdremux-2160p-ot-selezen-4k-hdr-dolby-vision-tv-d-p-itunes.torrent
U Магнитная ссылка Размер: 63.98 GB Раздают: 41 Качают: 40 Добавлен: 2019-12-02 06:46:03
Оно 2 / It Chapter Two (2019) UHD BDRemux 2160p от селезень | 4K | HDR | Dolby Vision TV | D, P | iTunes

Название: Оно 2
Оригинальное название: It Chapter Two
Год выхода: 2019
Жанр: Ужасы, экранизация
Режиссер: Андрес Мускетти
В ролях: Джессика Честейн, Джеймс МакЭвой, Билл Хэйдер, Айзая Мустафа, Джей Райан, Джеймс Рэнсон, Энди Бин, Билл Скарсгард, Джейден Мартелл, Уайатт Олефф, Джек Дилан Грейзер, Финн Вулфард, София Лиллис, Чоузен Джейкобс, Джереми Рэй Тейлор, Тич Грант, Николас Хэмилтон, Хавьер Ботет, Тейлор Фрэй, Молли Эткинсон, Люк Росслер, Джесс Вейкслер

О фильме: Проходит 27 лет после первой встречи ребят с демоническим Пеннивайзом. Они уже выросли, и у каждого своя жизнь. Но неожиданно их спокойное существование нарушает странный телефонный звонок, который заставляет их вновь собраться вместе.

Страна: Канада, США
Студия: KatzSmith Productions, Lin Pictures, New Line Cinema
Продолжительность: 02:49:25
Перевод: Дублированный | iTunes

Качество: BDRemux 2160p
Видео: 3840x2160 at 23.976 fps, MPEG-H HEVC HDR, Dolby Vision Video, 53600 kbps avg
Аудио: 48 kHz, AC3, 5.1, 384 Kbps | Дублированный | RUS |
Субтитры: Русские (Forced, отдельно)

Релиз:


[+] MI
General
Complete name               : F:Video111It.Chapter.Two.2019.BDREMUX.2160p.HDR.DV.TV.seleZenIt.Chapter.Two.2019.BDREMUX.2160p.HDR.DV.TV.seleZen.mp4
Format                      : MPEG-4
Format profile              : Base Media / Version 2
Codec ID                    : mp42 (mp42/dby1/isom)
File size                   : 64.0 GiB
Duration                    : 2 h 49 min
Overall bit rate            : 54.1 Mb/s
Encoded date                : UTC 2019-12-01 09:15:42
Tagged date                 : UTC 2019-12-01 09:15:42

Video #1
ID                          : 1
Format                      : HEVC
Format/Info                 : High Efficiency Video Coding
Format profile              : Main 10@L5.1@High
HDR format                  : SMPTE ST 2094 App 4, Version 1, HDR10+ Profile B compatible
Codec ID                    : hev1
Codec ID/Info               : High Efficiency Video Coding
Duration                    : 2 h 49 min
Bit rate                    : 53.6 Mb/s
Width                       : 3 840 pixels
Height                      : 2 160 pixels
Display aspect ratio        : 16:9
Frame rate mode             : Constant
Frame rate                  : 23.976 (24000/1001) FPS
Color space                 : YUV
Chroma subsampling          : 4:2:0 (Type 2)
Bit depth                   : 10 bits
Bits/(Pixel*Frame)          : 0.270
Stream size                 : 63.4 GiB (99%)
Default                     : No
Encoded date                : UTC 2019-12-01 09:15:42
Tagged date                 : UTC 2019-12-01 09:15:42
Color range                 : Limited
Color primaries             : BT.2020
Transfer characteristics    : PQ
Matrix coefficients         : BT.2020 non-constant
Mastering display color pri : Display P3
Mastering display luminance : min: 0.0050 cd/m2, max: 4000 cd/m2
Codec configuration box     : hvcC

Video #2
ID                          : 2
Format                      : HEVC
Format/Info                 : High Efficiency Video Coding
Format profile              : Main 10@L5.1@High
HDR format                  : Dolby Vision, Version 1.0, dvhe.07.06, EL+RPU / SMPTE ST 2086, HDR10 compatible
Codec ID                    : dvhe
Codec ID/Info               : High Efficiency Video Coding with Dolby Vision
Duration                    : 2 h 49 min
Bit rate                    : 64.9 kb/s
Width                       : 1 920 pixels
Height                      : 1 080 pixels
Display aspect ratio        : 16:9
Frame rate mode             : Constant
Frame rate                  : 23.976 (24000/1001) FPS
Color space                 : YUV
Chroma subsampling          : 4:2:0 (Type 2)
Bit depth                   : 10 bits
Bits/(Pixel*Frame)          : 0.001
Stream size                 : 78.6 MiB (0%)
Default                     : No
Encoded date                : UTC 2019-12-01 09:15:42
Tagged date                 : UTC 2019-12-01 09:15:42
Color range                 : Limited
Color primaries             : BT.2020
Transfer characteristics    : PQ
Matrix coefficients         : BT.2020 non-constant
Mastering display color pri : Display P3
Mastering display luminance : min: 0.0050 cd/m2, max: 4000 cd/m2
Codec configuration box     : hvcC+dvcC

Audio
ID                          : 3
Format                      : AC-3
Format/Info                 : Audio Coding 3
Commercial name             : Dolby Digital
Codec ID                    : ac-3
Duration                    : 2 h 49 min
Bit rate mode               : Constant
Bit rate                    : 384 kb/s
Channel(s)                  : 6 channels
Channel layout              : L R C LFE Ls Rs
Sampling rate               : 48.0 kHz
Frame rate                  : 31.250 FPS (1536 SPF)
Bit depth                   : 16 bits
Compression mode            : Lossy
Stream size                 : 465 MiB (1%)
Language                    : Russian
Service kind                : Complete Main
Default                     : No
Encoded date                : UTC 2019-12-01 09:15:42
Tagged date                 : UTC 2019-12-01 09:15:42



Скриншоты:
[+] Всего файлов в раздаче - 2:
It.Chapter.Two.2019.BDREMUX.2160p.HDR.DV.TV.seleZen.mp463.98 GB
It.Chapter.Two.2019.BDREMUX.2160p.HDR.DV.TV.seleZen.srt4.99 kB

Показать еще раздачи по запросу chapter:
2019-12-04 U Оно 2 / It Chapter Two (2019) BDRip-HEVC 1080p от HEVC-CLUB | iTunes 8.14 GB ↑ 69 ↓ 42
2019-12-04 U Оно 2 / It Chapter Two (2019) HDRip от Scarabey | iTunes 1.45 GB ↑ 43 ↓ 13
2019-12-02 U Оно 2 / It Chapter Two (2019) BDRip от MegaPeer | iTunes 2.83 GB ↑ 28 ↓ 10
2019-12-02 U Оно 2 / It Chapter Two (2019) BDRemux 1080p от селезень | D, P | iTunes 29.49 GB ↑ 45 ↓ 17
2019-12-02 U Оно 2 / It Chapter Two (2019) BDRip-AVC от OlLanDGroup | iTunes 2.57 GB ↑ 56 ↓ 16
2019-12-02 U Оно 2 / It Chapter Two (2019) BDRip от MegaPeer | iTunes 2.18 GB ↑ 48 ↓ 7
2019-12-02 U Оно 2 / It Chapter Two (2019) BDRip 720p от селезень | D, P | iTunes 6.23 GB ↑ 68 ↓ 19

Отзывы
Зарегистрируйтесь чтобы добавить комментарий.
Обратная связь
Copyleft ©