↑↓Torrent.by
Поиск
Логин: Регистрация
Пароль: Восстановить пароль

Однажды в… Голливуде / Once Upon a Time... in Hollywood (2019) BDRip-AVC от ExKinoRay | Лицензия

Скачать odnazhdy-v-gollivude-once-upon-a-time-in-hollywood-2019-bdrip-avc-ot-exkinoray-licenziya.torrent
U Магнитная ссылка Размер: 1.08 GB Раздают: 30 Качают: 5 Добавлен: 2019-12-02 06:46:26
Однажды в… Голливуде / Once Upon a Time... in Hollywood (2019) BDRip-AVC от ExKinoRay | Лицензия

Название: Однажды в… Голливуде
Оригинальное название: Once Upon a Time ... in Hollywood
Год выпуска: 2019
Жанр:  Драма, комедия
Режиссер: Квентин Тарантино
В ролях: Аль Пачино, Бренда Ваккаро, Брэд Питт, Брюс Дерн, Виктория Педретти, Дакота Фаннинг, Джеймс Марсден, Джеймс Римар, Дрима Уокер, Дэймон Херриман, Дэмиэн Льюис, Зои Белл, Кит Джефферсон, Клифтон Коллинз мл., Коста Ронин, Крэйг Старк, Курт Рассел, Леонардо ДиКаприо, Люк Перри, Майк Мо, Майкл Мэдсен, Маргарет Куэлли, Марго Робби, Марко Родригес, Мартин Коув, Мэдисен Бити, Николас Хэммонд, Николь Галисия, Рамон Франко, Рауль Кардона, Румер Уиллис, Скут МакНэри, Спенсер Гаррет, Тим Рот, Эмиль Хирш

О фильме:
Лос-Анджелес, лето 1969 года. Бывшая звезда телешоу Рик Далтон и его приятель-дублер Клифф Бут ищут способ пробиться в большое кино. Тем временем неподалеку от них преступная «семья», возглавляемая музыкантом-убийцей Чарли Мэнсоном, переходит от сатанистских ритуалов к кровавым расправам над людьми.

Страна: Великобритания, США, Китай
Студия: Bona Film Group, Heyday Films, Sony Pictures Entertainment
Продолжительность: 02:41:29
Перевод: Дублированный | Лицензия

Файл
Формат: MKV
Качество: BDRip-AVC
Видео: MPEG-4 AVC, 768x320, - 876 Кбит/с
Аудио:  AAC-HE, 2 ch, - 76 Кбит/с
Субтитры: Русские (Forced, full), английские


[+] MI
Общее
Уникальный идентификатор : 9260870944623542687245833192616663405 (0x6F79430958C3CF282F8C3B7D306996D)
Полное имя : D:MOVIESOnce.Upon.a.Time.in.Hollywood.2019.Lic.BDRip-AVC.ExKinoRay.mkv
Формат : Matroska
Версия формата : Version 4 / Version 2
Размер файла : 1,08 Гбайт
Продолжительность : 2 ч. 41 м.
Общий поток : 954 Кбит/сек
Дата кодирования : UTC 2019-12-01 08:07:28
Программа кодирования : mkvmerge v35.0.0 ('All The Love In The World') 64-bit
Библиотека кодирования : libebml v1.3.9 + libmatroska v1.5.2

Видео
Идентификатор : 1
Формат : AVC
Формат/Информация : Advanced Video Codec
Профиль формата : High@L4.1
Параметр CABAC формата : Да
Параметр RefFrames формата : 12 кадров
Идентификатор кодека : V_MPEG4/ISO/AVC
Продолжительность : 2 ч. 41 м.
Битрейт : 876 Кбит/сек
Ширина : 768 пикселей
Высота : 320 пикселей
Соотношение сторон : 2,40:1
Режим частоты кадров : Постоянный
Частота кадров : 23,976 (24000/1001) кадра/сек
Цветовое пространство : YUV
Субдискретизация насыщенности : 4:2:0
Битовая глубина : 8 бит
Тип развёртки : Прогрессивная
Бит/(Пиксели*Кадры) : 0.149
Размер потока : 1012 Мбайт (92%)
Библиотека кодирования : x264 core 152 r2851kMod ba24899
Настройки программы : cabac=1 / ref=12 / deblock=1:-2:-2 / analyse=0x3:0x133 / me=umh / subme=10 / psy=1 / fade_compensate=0.00 / psy_rd=1.00:0.10 / mixed_ref=1 / me_range=32 / chroma_me=1 / trellis=2 / 8x8dct=1 / cqm=0 / deadzone=21,11 / fast_pskip=0 / chroma_qp_offset=-3 / threads=6 / lookahead_threads=1 / sliced_threads=0 / nr=0 / decimate=0 / interlaced=0 / bluray_compat=0 / constrained_intra=0 / bframes=12 / b_pyramid=2 / b_adapt=2 / b_bias=0 / direct=3 / weightb=1 / open_gop=0 / weightp=2 / keyint=240 / keyint_min=24 / scenecut=40 / intra_refresh=0 / rc_lookahead=40 / rc=2pass / mbtree=1 / bitrate=876 / ratetol=1.0 / qcomp=0.60 / qpmin=0 / qpmax=69 / qpstep=4 / cplxblur=20.0 / qblur=0.5 / ip_ratio=1.40 / aq=3:1.00
Default : Да
Forced : Нет

Аудио
Идентификатор : 2
Формат : AAC
Формат/Информация : Advanced Audio Codec
Профиль формата : HE-AAC / LC
Идентификатор кодека : A_AAC
Продолжительность : 2 ч. 41 м.
Битрейт : 76,0 Кбит/сек
Каналы : 2 канала
Расположение каналов : Front: L R
Частота : 48,0 КГц / 24,0 КГц
Частота кадров : 23,438 кадра/сек (1024 SPF)
Метод сжатия : С потерями
Задержка видео : 31 мс.
Размер потока : 87,8 Мбайт (8%)
Язык : Russian
Default : Да
Forced : Нет

Текст #1
Идентификатор : 3
Формат : UTF-8
Идентификатор кодека : S_TEXT/UTF8
Идентификатор кодека/Информация : UTF-8 Plain Text
Продолжительность : 2 ч. 36 м.
Битрейт : 0 бит/сек
ElementCount : 16
Размер потока : 646 байт (0%)
Заголовок : Forced
Язык : Russian
Default : Да
Forced : Да

Текст #2
Идентификатор : 4
Формат : UTF-8
Идентификатор кодека : S_TEXT/UTF8
Идентификатор кодека/Информация : UTF-8 Plain Text
Продолжительность : 2 ч. 40 м.
Битрейт : 75 бит/сек
ElementCount : 1766
Размер потока : 88,7 Кбайт (0%)
Заголовок : Full
Язык : Russian
Default : Нет
Forced : Нет

Текст #3
Идентификатор : 5
Формат : UTF-8
Идентификатор кодека : S_TEXT/UTF8
Идентификатор кодека/Информация : UTF-8 Plain Text
Продолжительность : 2 ч. 40 м.
Битрейт : 61 бит/сек
ElementCount : 2543
Размер потока : 72,8 Кбайт (0%)
Заголовок : SDH
Язык : English
Default : Нет
Forced : Нет

Меню
00:00:00.000 : en:00:00:00.000
00:04:49.414 : en:00:04:49.414
00:13:45.199 : en:00:13:45.199
00:18:29.150 : en:00:18:29.150
00:22:00.319 : en:00:22:00.319
00:25:59.349 : en:00:25:59.349
00:28:41.094 : en:00:28:41.094
00:33:45.106 : en:00:33:45.106
00:40:19.334 : en:00:40:19.334
00:49:59.455 : en:00:49:59.455
00:51:48.689 : en:00:51:48.689
00:59:52.255 : en:00:59:52.255
01:02:32.874 : en:01:02:32.874
01:04:28.615 : en:01:04:28.615
01:09:16.736 : en:01:09:16.736
01:17:40.781 : en:01:17:40.781
01:20:25.779 : en:01:20:25.779
01:26:28.433 : en:01:26:28.433
01:32:54.444 : en:01:32:54.444
01:39:58.492 : en:01:39:58.492
01:47:55.219 : en:01:47:55.219
01:53:00.232 : en:01:53:00.232
01:58:09.541 : en:01:58:09.541
02:06:23.993 : en:02:06:23.993
02:11:22.958 : en:02:11:22.958
02:15:50.100 : en:02:15:50.100
02:21:30.190 : en:02:21:30.190
02:29:50.732 : en:02:29:50.732
02:36:28.254 : en:02:36:28.254
02:38:51.230 : en:02:38:51.230



Скриншоты:
[+] Всего файлов в раздаче - 1:
Once.Upon.a.Time.in.Hollywood.2019.Lic.BDRip-AVC.ExKinoRay.mkv1.08 GB

Показать еще раздачи по запросу однажды:
2019-12-10 U Однажды в России [06х01-15] (2019) WEBRip 720p от Files-x 15.22 GB ↑ 28 ↓ 44
2019-12-06 U Однажды в… Голливуде / Once Upon a Time... in Hollywood (2019) BDRip 1080p от qqss44 & MegaPeer | Лицензия 8.62 GB ↑ 103 ↓ 36
2019-12-05 U Однажды в… Голливуде / Once Upon a Time ... in Hollywood (2019) HDRip от Generalfilm | КПК | Лицензия 614.79 MB ↑ 32 ↓ 2
2019-12-04 U Однажды в… Голливуде / Once Upon a Time ... in Hollywood (2019) BDRip 720p от ExKinoRay | D, A 7.48 GB ↑ 59 ↓ 37
2019-12-04 U Однажды в… Голливуде / Once Upon a Time ... in Hollywood (2019) BDRip от HQ-ViDEO | D | Лицензия 2.90 GB ↑ 43 ↓ 21
2019-12-02 U Однажды в России [06х01-14] (2019) WEBRip 720p от Files-x 14.14 GB ↑ 38 ↓ 65
2019-12-02 U Однажды в… Голливуде / Once Upon a Time... in Hollywood (2019) HDRip от Scarabey | Лицензия 1К2.79 GB ↑ 58 ↓ 24

Отзывы
Зарегистрируйтесь чтобы добавить комментарий.
Обратная связь
Copyleft ©