↑↓Torrent.by
Поиск
Логин: Регистрация
Пароль: Восстановить пароль

Холодные берега [01-08 из 08] (2019) WEB-DLRip от GeneralFilm

Скачать holodnye-berega-01-08-iz-2019-web-dlrip-ot-generalfilm.torrent
U Магнитная ссылка Размер: 4.35 GB Раздают: 35 Качают: 23 Добавлен: 2019-12-02 06:46:42
Холодные берега [01-08 из 08] (2019) WEB-DLRip от GeneralFilm

Оригинальное название: Холодные берега
Год выпуска: 2019
Жанр:  Триллер
Выпущено: Россия, «Стар Медиа»
Режиссер: Сергей Комаров
В ролях: Кирилл Сафонов, Екатерина Вилкова, Александр Горбатов, Анастасия Микульчина, Сергей Пускепалис, Виталий Шпортько, Никита Панов, Галина Польских, Денис Константинов, Елена Папанова, Евгения Малахова

О фильме: Вот уже несколько месяцев жители Озерска живут в постоянном страхе – в городе появился маньяк, который уродует и душит молодых женщин. После ссоры с мужем, богатая наследница Мария Воронцова пропадает без вести. Начальник отделения полиции, Борис Новинский, поручает это дело молодому следователю, вчерашнему стажеру и своей дочери Алине Новинской. Поиски Воронцовой заканчиваются безрезультатно, но они становятся поводом к сближению Алины и мужа Марии, Марка. Через четыре года у них крепкая семья. Однажды Марк отправляется в командировку и встречает женщину, как две капли воды похожую на Марию. Марк не в силах справиться с вновь нахлынувшими на него чувствами и бросает Алину ради женщины, так пугающе похожей на его первую жену. Между тем, в Озерске возобновляется волна убийств - судя по почерку, таинственный маньяк, о котором все уже забыли, снова выходит на охоту. Алина возвращается к полицейской работе и поискам маньяка, которые приведут ее к шокирующей разгадке…

Файл
Качество: WEB-DLRip
Видео: XviD build 73, 720x400 (16:9), 25.000 fps, ~ 1400 Kbps (~ 0.200 bit/pixel)
Аудио: 48.0 kHz, AC3, 2/0 ch, 192 kbps
Продолжительность: 8 х ~ 00:48:00
Перевод: Не требуется [Русский]
Cубтитры: нет

Релиз:


[+] MediaInfo
General
Complete name               : D:RazdachiHolodnye.Berega.2019.WEB-DLRip.GeneralFilme05.Holodnye.Berega.avi
Format                      : AVI
Format/Info                 : Audio Video Interleave
File size                   : 557 MiB
Duration                    : 49 min 13 s
Overall bit rate            : 1 583 kb/s
Writing application         : VirtualDubMod 1.5.10.3 | www.virtualdub-fr.org || (build 2550/release)
Writing library             : VirtualDubMod build 2550/release

Video
ID                          : 0
Format                      : MPEG-4 Visual
Format profile              : Advanced Simple@L5
Format settings             : BVOP1 / Custom Matrix
Format settings, BVOP       : 1
Format settings, QPel       : No
Format settings, GMC        : No warppoints
Format settings, Matrix     : Custom
Codec ID                    : XVID
Codec ID/Hint               : XviD
Duration                    : 49 min 13 s
Bit rate                    : 1 381 kb/s
Width                       : 720 pixels
Height                      : 400 pixels
Display aspect ratio        : 16:9
Frame rate                  : 25.000 FPS
Color space                 : YUV
Chroma subsampling          : 4:2:0
Bit depth                   : 8 bits
Scan type                   : Progressive
Compression mode            : Lossy
Bits/(Pixel*Frame)          : 0.192
Stream size                 : 486 MiB (87%)
Writing library             : XviD 73

Audio
ID                          : 1
Format                      : AC-3
Format/Info                 : Audio Coding 3
Commercial name             : Dolby Digital
Codec ID                    : 2000
Duration                    : 49 min 13 s
Bit rate mode               : Constant
Bit rate                    : 192 kb/s
Channel(s)                  : 2 channels
Channel layout              : L R
Sampling rate               : 48.0 kHz
Frame rate                  : 31.250 FPS (1536 SPF)
Compression mode            : Lossy
Stream size                 : 67.6 MiB (12%)
Alignment                   : Split across interleaves
Interleave, duration        : 40  ms (1.00 video frame)
Interleave, preload duratio : 500  ms
Service kind                : Complete Main



Скриншоты:
[+] Всего файлов в раздаче - 8:
e01.Holodnye.Berega.avi557.13 MB
e02.Holodnye.Berega.avi557.42 MB
e03.Holodnye.Berega.avi557.64 MB
e04.Holodnye.Berega.avi557.65 MB
e05.Holodnye.Berega.avi557.42 MB
e06.Holodnye.Berega.avi557.05 MB
e07.Holodnye.Berega.avi557.33 MB
e08.Holodnye.Berega.avi557.68 MB

Похожие раздачи по запросу - холодные:
2019-10-18 U Холодные берега [01-08 из 08] (2019) HDTVRip 720p от ExKinoRay 10.42 GB ↑ 72 ↓ 141
2019-10-18 U Холодные берега [01-08 из 08] (2019) HDTVRip от GeneralFilm 4.35 GB ↑ 128 ↓ 118
2019-10-17 U Холодные берега [01х01-08 из 08] (2019) SATRip-AVC 4.73 GB ↑ 45 ↓ 7

Отзывы
Зарегистрируйтесь чтобы добавить комментарий.
Обратная связь
Copyleft ©