↑↓Torrent.by
Поиск
Логин: Регистрация
Пароль: Восстановить пароль

Кругосветное путешествие Элькано и Магеллана / Elcano y Magallanes. La primera vuelta al mundo (2019) WEB-DL 1080p | iTunes

Скачать krugosvetnoe-puteshestvie-elkano-i-magellana-elcano-y-magallanes-la-primera-vuelta-al-mundo-2019-web-dl-1080p-itunes.torrent
U Магнитная ссылка Размер: 3.45 GB Раздают: 94 Качают: 80 Добавлен: 2019-12-02 11:13:42
Кругосветное путешествие Элькано и Магеллана / Elcano y Magallanes. La primera vuelta al mundo (2019) WEB-DL 1080p | iTunes

Название: Кругосветное путешествие Элькано и Магеллана
Оригинальное название: Elcano y Magallanes. La primera vuelta al mundo
Год выхода: 2019
Жанр: Мультфильм, мелодрама, приключения
Режиссер: Анхель Алонсо
Роли озвучивают: Кико Хауреги, Иньяки Бераэче, Айнцане Круэйрас, Хосе Вера, Андер Вильдосола Гала, Кандидо Уранга, Ксавьер Алькиза, Джон Саманьего, Мартин Забала, Манью Элисондо

О фильме:
Севилья, 1519 год. Прославленный адмирал Фернандо Магеллан снаряжает пять кораблей, чтобы отплыть к экзотическим островам. Путешествие обещает быть опасным и больше похожим на авантюру. Позже к команде присоединяется молодой искатель приключений Хуан Себастьян Элькано, горе-капитан, потерявший свое единственное судно и едва не угодивший за решетку. Вместе им предстоит преодолеть все трудности на пути к величайшим открытиям.

Страна: Испания
Студия: Dibulitoon Studio, Elkano Dibulitoon AIE
Продолжительность: 01:29:30
Перевод:
• Профессиональный (полное дублирование) | iTunes

Файл
Качество: WEB-DL 1080p
Формат: MKV
Видео: 1920x1014 (1,893:1), 24 fps, MPEG-4 AVC ~ 5141 Kbps avg, 0.110 bit/pixel
Аудио: AC3, 48 kHz, 6 ch, ~384.00 kbps avg | русский | iTunes


[+] Инфо-файл
Общее
Уникальный идентификатор                 : 233421407581172803546928185377910895634 (0xAF9B53EE1E8075264A9CC8D3BF3F3412)
Полное имя                               : G:EM_LA_PRIMERA_VUELTA_AL_MUNDO (2019) WEB-DL 1080p.mkv
Формат                                   : Matroska
Версия формата                           : Version 4
Размер файла                             : 3,45 Гбайт
Продолжительность                        : 1 ч. 29 м.
Общий поток                              : 5527 Кбит/сек
Название фильма                          : EM_LA_PRIMERA_VUELTA_AL_MUNDO (2019) WEB-DL 1080p
Дата кодирования                         : UTC 2019-12-02 04:58:40
Программа кодирования                    : mkvmerge v38.0.0 ('The Silent Type') 64-bit
Библиотека кодирования                   : libebml v1.3.9 + libmatroska v1.5.2
Обложка                                  : Yes
Attachments                              : cover.jpg

Видео
Идентификатор                            : 1
Формат                                   : AVC
Формат/Информация                        : Advanced Video Codec
Профиль формата                          : High@L4
Настройки формата                        : CABAC / 4 Ref Frames
Параметр CABAC формата                   : Да
Параметр RefFrames формата               : 4 кадра
Идентификатор кодека                     : V_MPEG4/ISO/AVC
Продолжительность                        : 1 ч. 29 м.
Битрейт                                  : 5141 Кбит/сек
Ширина                                   : 1920 пикселей
Высота                                   : 1014 пикселей
Соотношение сторон                       : 1,893
Режим частоты кадров                     : Постоянный
Частота кадров                           : 24,000 кадра/сек
Цветовое пространство                    : YUV
Субдискретизация насыщенности            : 4:2:0
Битовая глубина                          : 8 бит
Тип развёртки                            : Прогрессивная
Бит/(Пиксели*Кадры)                      : 0.110
Размер потока                            : 3,21 Гбайт (93%)
Заголовок                                : #stillet
Язык                                     : English
Default                                  : Да
Forced                                   : Нет
Цветовой диапазон                        : Limited
Основные цвета                           : BT.709
Характеристики трансфера                 : BT.709
Коэффициенты матрицы                     : BT.709

Аудио
Идентификатор                            : 2
Формат                                   : AC-3
Формат/Информация                        : Audio Coding 3
Коммерческое название                    : Dolby Digital
Идентификатор кодека                     : A_AC3
Продолжительность                        : 1 ч. 29 м.
Вид битрейта                             : Постоянный
Битрейт                                  : 384 Кбит/сек
Каналы                                   : 6 каналов
ChannelLayout                            : L R C LFE Ls Rs
Частота                                  : 48,0 КГц
Частота кадров                           : 31,250 кадров/сек (1536 SPF)
Метод сжатия                             : С потерями
Задержка видео                           : -42 мс.
Размер потока                            : 246 Мбайт (7%)
Заголовок                                : iTunes | EM_LA_PRIMERA_VUELTA_AL_MUNDO (2019) WEB-DL 1080p
Язык                                     : Russian
Default                                  : Да
Forced                                   : Да

Меню
00:00:00.000                             : en:Глава 1
00:08:17.333                             : en:Глава 2
00:16:26.624                             : en:Глава 3
00:24:38.582                             : en:Глава 4
00:32:26.372                             : en:Глава 5
00:40:37.705                             : en:Глава 6
00:48:53.455                             : en:Глава 7
00:57:06.330                             : en:Глава 8
01:05:36.788                             : en:Глава 9
01:14:17.453                             : en:Глава 10
01:22:57.035                             : en:Глава 11
01:29:29.993                             : en:Глава 1




Скриншоты:
[+] Всего файлов в раздаче - 1:
EM_LA_PRIMERA_VUELTA_AL_MUNDO (2019) WEB-DL 1080p.mkv3.45 GB

Похожие раздачи по запросу - кругосветное:
2019-12-02 U Кругосветное путешествие Элькано и Магеллана / Elcano y Magallanes. La primera vuelta al mundo (2019) WEB-DLRip | iTunes 1.46 GB ↑ 140 ↓ 84

Отзывы
Зарегистрируйтесь чтобы добавить комментарий.
Обратная связь
Copyleft ©