↑↓Torrent.by
Поиск
Логин: Регистрация
Пароль: Восстановить пароль

Горе от ума [01-06 из 08] (2019) WEB-DLRip от GeneralFilm

Скачать gore-ot-uma-01-06-iz-08-2019-web-dlrip-generalfilm.torrent
U Магнитная ссылка Размер: 1.20 GB Раздают: 33 Качают: 83 Добавлен: 2019-12-02 11:13:57
Горе от ума [01-06 из 08] (2019) WEB-DLRip от GeneralFilm

Оригинальное название: Горе от ума
Год выпуска: 2019
Жанр:  Драма
Выпущено: Россия, «Most Studio Production»
Режиссер: Динар Гарипов
В ролях: Павел Прилучный, Мария Кожевникова, Фёдор Лавров, Даниил Спиваковский, Игорь Угольников, Сергей Медведев, Ольга Лерман, Сергей Юшкевич, Григорий Данцигер, Михаил Горевой, Юлия Сулес, Дмитрий Воронин (II), Алексей Войтюк, Георгий Рюмин, Анна Цуканова-Котт, Максим Казанцев, Субхан Мамедов, Михаил Богдасаров, Даниил Никитин (II), Мари Марк (II), Тагир Султанов, Зоя Мансурова

О фильме: Погибает Чацкий — известный интернет-блогер с многомиллионной армией подписчиков. Следователю по особым делам — Порфирию Петрову — поручают в кратчайшие сроки выяснить все детали смерти Чацкого, т. к. его похороны могут спровоцировать общественные волнения и беспорядки. Выясняется, что Чацкий своими расследованиями и открытым хейтерством нажил себе довольно много врагов, каждый из которых становится подозреваемым в списке Порфирия. Усугубляет ситуацию смерть в прямом эфире блогера N2 — Базарова, а также пропажа из морга тела Чацкого. У Порфирия есть всего три дня, чтобы разобраться во всем происходящем в этом мире. А также в его виртуальной изнанке…

Файл
Качество: WEB-DLRip
Видео: XviD build 73, 720x304 (2.37:1), 23.976 fps, ~ 1600 Kbps (~ 0.200 bit/pixel)
Аудио: 48.0 kHz, AC3, 2/0 ch, 192 kbps
Продолжительность: 6 х ~ 00:18:00
Перевод: Не требуется [Русский]
Cубтитры: нет

Релиз:
[+] MediaInfo
General
Complete name               : D:RazdachiGore.Ot.Uma.2019.WEBRip.GeneralFilme01.Gore.Ot.Uma.avi
Format                      : AVI
Format/Info                 : Audio Video Interleave
File size                   : 226 MiB
Duration                    : 17 min 29 s
Overall bit rate            : 1 806 kb/s
Writing application         : VirtualDubMod 1.5.10.3 | www.virtualdub-fr.org || (build 2550/release)
Writing library             : VirtualDubMod build 2550/release

Video
ID                          : 0
Format                      : MPEG-4 Visual
Format profile              : Advanced Simple@L5
Format settings             : BVOP1 / Custom Matrix
Format settings, BVOP       : 1
Format settings, QPel       : No
Format settings, GMC        : No warppoints
Format settings, Matrix     : Custom
Codec ID                    : XVID
Codec ID/Hint               : XviD
Duration                    : 17 min 29 s
Bit rate                    : 1 604 kb/s
Width                       : 720 pixels
Height                      : 304 pixels
Display aspect ratio        : 2.35:1
Frame rate                  : 23.976 (24000/1001) FPS
Color space                 : YUV
Chroma subsampling          : 4:2:0
Bit depth                   : 8 bits
Scan type                   : Progressive
Compression mode            : Lossy
Bits/(Pixel*Frame)          : 0.306
Stream size                 : 201 MiB (89%)
Writing library             : XviD 73

Audio
ID                          : 1
Format                      : AC-3
Format/Info                 : Audio Coding 3
Commercial name             : Dolby Digital
Codec ID                    : 2000
Duration                    : 17 min 29 s
Bit rate mode               : Constant
Bit rate                    : 192 kb/s
Channel(s)                  : 2 channels
Channel layout              : L R
Sampling rate               : 48.0 kHz
Frame rate                  : 31.250 FPS (1536 SPF)
Compression mode            : Lossy
Delay relative to video     : 23 ms
Stream size                 : 24.0 MiB (11%)
Alignment                   : Split across interleaves
Interleave, duration        : 42  ms (1.00 video frame)
Interleave, preload duratio : 500  ms
Service kind                : Complete Main



Скриншоты:
[+] Всего файлов в раздаче - 6:
e01.Gore.Ot.Uma.avi226.04 MB
e02.Gore.Ot.Uma.avi218.57 MB
e03.Gore.Ot.Uma.avi221.78 MB
e04.Gore.Ot.Uma.avi228.92 MB
e05.Gore.Ot.Uma.avi171.83 MB
e06.Gore.Ot.Uma.avi158.81 MB

Похожие раздачи по запросу - горе:
2019-12-06 U Горе от ума [01-08 из 08] (2019) WEB-DLRip от Files-x 1.62 GB ↑ 44 ↓ 18
2019-12-05 U Горе от ума [01-08 из 08] (2019) WEB-DL 720p от ExKinoRay 3.17 GB ↑ 112 ↓ 82
2019-12-05 U Горе от ума [01-08 из 08] (2019) WEB-DLRip от GeneralFilm 1.52 GB ↑ 44 ↓ 94
2019-11-24 U Горе от ума [01-02 из 08] (2019) WEBRip-AVC от Files-x 445.64 MB ↑ 81 ↓ 4
2019-11-23 U Горе от ума [01-02 из 08] (2019) WEB-DL 1080p 1.48 GB ↑ 57 ↓ 28
2019-11-23 U Горе от ума [01-02 из 08] (2019) WEB-DLRip 479.56 MB ↑ 76 ↓ 17

Отзывы
Зарегистрируйтесь чтобы добавить комментарий.
Обратная связь
Copyleft ©