↑↓Torrent.by
Поиск
Логин: Регистрация
Пароль: Восстановить пароль

Шлюха / Jade (1995) BDRip-AVC | P

Скачать shlyuha-jade-1995-bdrip-avc-p.torrent
U Магнитная ссылка Размер: 1.81 GB Раздают: 47 Качают: 14 Добавлен: 2019-12-02 11:14:05
Шлюха / Jade (1995) BDRip-AVC | P

Год выпуска: 1995
Жанр:  триллер, драма, криминал
Режиссер: Уильям Фридкин
В ролях: Дэвид Карузо, Линда Фиорентино, Чазз Палминтери, Ричард Кренна, Майкл Бьен, Донна Мерфи, Кевин Тиг, Холт МакКэллэни, Дэвид Хант

Описание:
Есть люди, которые полагают, что существуют лишь три вещи, заставляющие крутиться этот прогнивший и порочный мир — деньги, секс и власть. Все остальное, включая жалость, совесть и честь, не имеет для них абсолютно никакого значения. Эти люди готовы пойти на многое во имя своих трех идолов. Но иногда случается, что в своих желаниях они заходят слишком далеко… Сотрудник прокуратуры Дэйвид Корелли расследует чудовищное по своей жестокости убийство. В своей шикарной вилле был страшно изуродован топором пожилой миллионер. Следователь Корелли — идеальная кандидатура для разрешения столь сложного преступления. Но есть лишь одна маленькая загвоздка: никто не хочет, чтобы это преступление было раскрыто…

Выпущено: США
Перевод: профессиональный (многоголосый закадровый ТВ3)
Субтитры: Нет
Продолжительность: 01:34:45

Файл
Качество: BDRip-AVC
Контейнер: МКV
Видео: 1024x576, High@L4.1, 23.976 fps, ~2234 kbps
Аудио: 48 kHz, АС3, 6 ch, 448 kbps


[+] M/I
General
Format                      : Matroska
Format version              : Version 4 / Version 2
File size                   : 1.81 GiB
Duration                    : 1h 34mn
Overall bit rate            : 2 736 Kbps
Movie name                  : Шлюха
ORIGINAL_TITLE              : Jade
DATE                        : 1995
GENRE                       :  [url=/tag/1/триллер]триллер, драма, криминал[/url]
ITUNEXTC                    : mpaa|R|400|
WRITER                      : Джо Эстерхаз
COUNTRY                     : США
RATING                      : 5.868
IMDB_RATING                 : 5.10
Attachements                : cover.png

Video
ID                          : 1
Format                      : AVC
Format/Info                 : Advanced Video Codec
Format profile              : High@L4.1
Format settings, CABAC      : Yes
Format settings, ReFrames   : 12 frames
Codec ID                    : V_MPEG4/ISO/AVC
Duration                    : 1h 34mn
Bit rate                    : 2 234 Kbps
Width                       : 1 024 pixels
Height                      : 576 pixels
Display aspect ratio        : 16:9
Frame rate mode             : Constant
Frame rate                  : 23.976 fps
Color space                 : YUV
Chroma subsampling          : 4:2:0
Bit depth                   : 8 bits
Scan type                   : Progressive
Bits/(Pixel*Frame)          : 0.158
Stream size                 : 1.48 GiB (82%)
Writing library             : x264 core 148 r2597M e86f3a1
Encoding settings           : cabac=1 / ref=12 / deblock=1:-3:-3 / analyse=0x3:0x133 / me=umh / subme=11 / psy=1 / psy_rd=1.00:0.10 / mixed_ref=1 / me_range=32 / chroma_me=1 / trellis=2 / 8x8dct=1 / cqm=0 / deadzone=21,11 / fast_pskip=0 / chroma_qp_offset=-3 / threads=5 / lookahead_threads=1 / sliced_threads=0 / nr=0 / decimate=1 / interlaced=0 / bluray_compat=0 / constrained_intra=0 / bframes=10 / b_pyramid=2 / b_adapt=2 / b_bias=0 / direct=1 / weightb=1 / open_gop=0 / weightp=2 / keyint=230 / keyint_min=23 / scenecut=40 / intra_refresh=0 / rc=crf / mbtree=0 / crf=20.0 / qcomp=0.60 / qpmin=20 / qpmax=69 / qpstep=4 / ip_ratio=1.40 / pb_ratio=1.30 / aq=1:1.00
Default                     : Yes
Forced                      : No
Color range                 : Limited
Color primaries             : BT.709
Transfer characteristics    : BT.709
Matrix coefficients         : BT.709

Audio
ID                          : 2
Format                      : AC-3
Format/Info                 : Audio Coding 3
Mode extension              : CM (complete main)
Format settings, Endianness : Big
Codec ID                    : A_AC3
Duration                    : 1h 34mn
Bit rate mode               : Constant
Bit rate                    : 448 Kbps
Channel(s)                  : 6 channels
Channel positions           : Front: L C R, Side: L R, LFE
Sampling rate               : 48.0 KHz
Bit depth                   : 32 bits
Compression mode            : Lossy
Stream size                 : 304 MiB (16%)
Title                       : ТВ3
Language                    : Russian
Default                     : Yes
Forced                      : Yes

Menu
00:00:00.000                : :Chapter 1
00:05:14.022                : :Chapter 2
00:09:18.266                : :Chapter 3
00:17:45.814                : :Chapter 4
00:24:19.166                : :Chapter 5
00:28:11.898                : :Chapter 6
00:31:32.599                : :Chapter 7
00:36:57.089                : :Chapter 8
00:39:55.017                : :Chapter 9
00:50:41.621                : :Chapter 10
00:53:53.605                : :Chapter 11
01:01:44.075                : :Chapter 12
01:05:42.855                : :Chapter 13
01:13:55.222                : :Chapter 14
01:20:53.056                : :Chapter 15
01:28:51.451                : :Chapter 16



Скриншоты:
[+] Всего файлов в раздаче - 1:
Шлюха.(1995).BDRIP_AVC.[-=DoMiNo=-].mkv1.81 GB

Похожие раздачи по запросу - шлюха:
2018-04-23 U Шлюха / Whore (1991) WEB-DLRip от Portablius | P 697.91 MB ↑ 123 ↓ 17
2018-02-22 U Шлюха / The Slut (2011) DVDRip | L1 696.95 MB ↑ 156 ↓ 68
2018-01-06 U Шлюха / Porca vacca (1982) DVDRip | L1 1.37 GB ↑ 214 ↓ 74
2015-06-25 U Шлюха / Jade (1995) HDRip | A 1.46 GB ↑ 276 ↓ 99

Отзывы
Зарегистрируйтесь чтобы добавить комментарий.
Обратная связь
Copyleft ©