↑↓Torrent.by
Поиск
Логин: Регистрация
Пароль: Восстановить пароль

Следи за дорогой / Adopt a Highway (2019) WEB-DLRip-AVC | P2

Скачать sledi-za-dorogoy-adopt-a-highway-2019-web-dlrip-avc-p2.torrent
U Магнитная ссылка Размер: 1.37 GB Раздают: 53 Качают: 19 Добавлен: 2019-12-02 11:14:23
Следи за дорогой / Adopt a Highway (2019) WEB-DLRip-AVC | P2

Название: Следи за дорогой
Оригинальное название: Adopt a Highway
Год выхода: 2019
Жанр:  Драма
Режиссер: Логан Маршалл-Грин
В ролях: Итэн Хоук, Крис Салливан, Кристофер Хейердал, Илэйн Хендрикс, Энн-Мари Джонсон, Бетти Гэбриел, Мо, Нат Муни, Дон Норвуд, Милона Джексон, Крис Уильямс, Дайан Маршалл-Грин, Джереми Харрис, Хорхе Диас, Лони Лав

О фильме:
Рассел вышел на свободу, отсидев 20 лет в тюрьме. Он пытается приспособиться к жизни, работая в закусочной и проживая в маленькой убогой квартире. Однажды ночью в мусорном баке он находит младенца и решает заботиться о нем.

Страна: США
Студия: Blumhouse Productions, Under the Influence, Divide / Conquer, Tang Media Partners
Продолжительность: 01:21:17
Перевод: Профессиональный двухголосый | Voice Project Studio (ненормативная лексика)

Файл
Формат: Matroska
Качество: WEB-DLRip-AVC
Видео: High@L4.1, 824x462 (16:9), 23.976 fps, ~1787 kbps avg, 0.196 bit/pixel
Аудио 1: 48 kHz, AC3 Dolby Digital, 2/0 (L,R) ch, ~192 kbps avg
Аудио 2: 48 kHz, AC3 Dolby Digital, 3/2 (L,C,R,l,r) + LFE ch, ~384 kbps avg
Субтитры: Русские (FOCS), aнглийские


[+] M/I
Video
ID                          : 1
Format                      : AVC
Format/Info                 : Advanced Video Codec
Format profile              : High@L4.1
Format settings             : CABAC / 10 Ref Frames
Format settings, CABAC      : Yes
Format settings, Reference  : 10 frames
Codec ID                    : V_MPEG4/ISO/AVC
Duration                    : 1 h 21 min
Bit rate                    : 1 787 kb/s
Width                       : 824 pixels
Height                      : 462 pixels
Display aspect ratio        : 16:9
Frame rate mode             : Constant
Frame rate                  : 23.976 (24000/1001) FPS
Color space                 : YUV
Chroma subsampling          : 4:2:0
Bit depth                   : 8 bits
Scan type                   : Progressive
Bits/(Pixel*Frame)          : 0.196
Stream size                 : 1.01 GiB (74%)
Title                       : Rip by ivanes
Writing library             : x264 core 158 r2984+49 6932f4a t_mod_New [0-bit@all X86]
Encoding settings           : cabac=1 / ref=10 / deblock=1:-3:-3 / analyse=0x3:0x113 / me=umh / subme=10 / psy=1 / fade_compensate=0.00 / psy_rd=1.00:0.00 / mixed_ref=1 / me_range=32 / chroma_me=1 / trellis=2 / 8x8dct=1 / cqm=0 / deadzone=21,11 / fast_pskip=0 / chroma_qp_offset=-2 / threads=12 / lookahead_threads=3 / sliced_threads=0 / nr=0 / decimate=1 / interlaced=0 / bluray_compat=0 / constrained_intra=0 / fgo=0 / bframes=10 / b_pyramid=2 / b_adapt=2 / b_bias=0 / direct=1 / weightb=1 / open_gop=0 / weightp=2 / keyint=240 / keyint_min=23 / scenecut=40 / intra_refresh=0 / rc_lookahead=60 / rc=crf / mbtree=0 / crf=16.6000 / qcomp=0.60 / qpmin=0:0:0 / qpmax=69:69:69 / qpstep=4 / vbv_maxrate=50000 / vbv_bufsize=62500 / crf_max=0.0 / nal_hrd=none / filler=0 / ip_ratio=1.40 / pb_ratio=1.30 / aq=1:1.00 / aq-sensitivity=10.00 / aq-factor=1.00:1.00:1.00 / aq2=0 / aq3=0
Default                     : Yes
Forced                      : No
Statistics Tags Issue       : mkvmerge v29.0.0 ('Like It Or Not') 64-bit 2019-11-30 16:18:09 / mkvmerge v4.4.0 ('Die Wiederkehr') сборка от Jan  3 2011 21:40:45 2019-11-30 16:19:06
FromStats_BitRate           : 1833562
FromStats_Duration          : 01:21:16.121000000
FromStats_FrameCount        : 116910
FromStats_StreamSize        : 1117584200

Audio #1
ID                          : 2
Format                      : AC-3
Format/Info                 : Audio Coding 3
Commercial name             : Dolby Digital
Codec ID                    : A_AC3
Duration                    : 1 h 21 min
Bit rate mode               : Constant
Bit rate                    : 192 kb/s
Channel(s)                  : 2 channels
Channel layout              : L R
Sampling rate               : 48.0 kHz
Frame rate                  : 31.250 FPS (1536 SPF)
Compression mode            : Lossy
Stream size                 : 112 MiB (8%)
Title                       : Voice Project Studio
Language                    : Russian
Service kind                : Complete Main
Default                     : Yes
Forced                      : No

Audio #2
ID                          : 3
Format                      : AC-3
Format/Info                 : Audio Coding 3
Commercial name             : Dolby Digital
Codec ID                    : A_AC3
Duration                    : 1 h 21 min
Bit rate mode               : Constant
Bit rate                    : 384 kb/s
Channel(s)                  : 6 channels
Channel layout              : L R C LFE Ls Rs
Sampling rate               : 48.0 kHz
Frame rate                  : 31.250 FPS (1536 SPF)
Compression mode            : Lossy
Stream size                 : 223 MiB (16%)
Title                       : Original
Language                    : English
Service kind                : Complete Main
Default                     : No
Forced                      : No

Text #1
ID                          : 4
Format                      : UTF-8
Codec ID                    : S_TEXT/UTF8
Codec ID/Info               : UTF-8 Plain Text
Title                       : Full
Language                    : Russian
Default                     : No
Forced                      : No

Text #2
ID                          : 5
Format                      : UTF-8
Codec ID                    : S_TEXT/UTF8
Codec ID/Info               : UTF-8 Plain Text
Title                       : Full
Language                    : English
Default                     : No
Forced                      : No



Скриншоты:
[+] Всего файлов в раздаче - 1:
Следи за дорогой (2019) WEB-DLRip-AVC_ivanes.mkv1.37 GB

Похожие раздачи по запросу - следи:
2019-12-01 U Следи за дорогой / Adopt a Highway (2019) WEB-DL 1080p | P2 3.32 GB ↑ 117 ↓ 43

Отзывы
Зарегистрируйтесь чтобы добавить комментарий.
Обратная связь
Copyleft ©