↑↓Torrent.by
Поиск
Логин: Регистрация
Пароль: Восстановить пароль

Ты только верь [01-04 из 04] (2019) WEB-DLRip от Files-x

Скачать ty-tolko-ver-01-04-iz-2019-web-dlrip-ot-files-x.torrent
U Магнитная ссылка Размер: 2.29 GB Раздают: 108 Качают: 75 Добавлен: 2019-12-02 14:42:48
Ты только верь [01-04 из 04] (2019) WEB-DLRip от Files-x

Оригинальное название: Ты только верь
Год выхода: 2019
Жанр: Мелодрама
Режиссер: Игорь Москвитин
В ролях: Ольга Сухарева, Александр Давыдов (IV), Тимофей Каратаев, Алла Масленникова, Валерия Ходос, Денис Роднянский, Инга Нагорная, Никита Пархоменко, Данила Бочков

О фильме:
По мнению друзей и знакомых, у Елены Соколовской была не жизнь, а сказка: богатый муж, мудрая свекровь, сын - отличник и спортсмен. А еще вот-вот родится дочь. Но автоавария разбила эту сказку вдребезги, и в обломках отразилась реальность: измена, ложь, подлость, одиночество. Спасти Елену от падения в пучину безумия оказались способны лишь маленькая Маша и ее папа Андрей...

Страна: Россия, Украина
Студия: Кинокомпания "Star Media"
Продолжительность: 4 х 00:45:05
Перевод: Не требуется

Файл
Кодек: XviD
Качество: WEB-DLRip
Видео: XviD, ~ 1615 Кбит/с, 720x400, 25 кадр/с
Звук: AC3, 2 ch, 192 Кбит/с

Релиз:
[+] MediaInfo

General
Complete name : C:01.Ты только верь.(2019).WEB-DLRip.by.Nicodem.Files-x.avi
Format : AVI
Format/Info : Audio Video Interleave
File size : 585 MiB
Duration : 45mn 2s
Overall bit rate : 1 817 Kbps
Writing application : VirtualDubMod 1.5.10.3 | www.virtualdub-fr.org || (build 2550/release)
Writing library : VirtualDubMod build 2550/release

Video
ID : 0
Format : MPEG-4 Visual
Format profile : Advanced Simple@L5
Format settings, BVOP : 1
Format settings, QPel : No
Format settings, GMC : No warppoints
Format settings, Matrix : Custom
Codec ID : XVID
Codec ID/Hint : XviD
Duration : 45mn 2s
Bit rate : 1 615 Kbps
Width : 720 pixels
Height : 400 pixels
Display aspect ratio : 16:9
Frame rate : 25.000 fps
Color space : YUV
Chroma subsampling : 4:2:0
Bit depth : 8 bits
Scan type : Progressive
Compression mode : Lossy
Bits/(Pixel*Frame) : 0.224
Stream size : 520 MiB (89%)
Writing library : XviD 73

Audio
ID : 1
Format : AC-3
Format/Info : Audio Coding 3
Mode extension : CM (complete main)
Codec ID : 2000
Duration : 45mn 2s
Bit rate mode : Constant
Bit rate : 192 Kbps
Channel(s) : 2 channels
Channel positions : Front: L R
Sampling rate : 48.0 KHz
Bit depth : 16 bits
Compression mode : Lossy
Stream size : 61.9 MiB (11%)
Alignment : Split accross interleaves
Interleave, duration : 40 ms (1.00 video frame)
Interleave, preload duration : 500 ms



Скриншоты:
[+] Всего файлов в раздаче - 4:
03.Ты только верь.(2019).WEB-DLRip.by.Nicodem.Files-x.avi585.04 MB
02.Ты только верь.(2019).WEB-DLRip.by.Nicodem.Files-x.avi585.11 MB
04.Ты только верь.(2019).WEB-DLRip.by.Nicodem.Files-x.avi585.23 MB
01.Ты только верь.(2019).WEB-DLRip.by.Nicodem.Files-x.avi585.25 MB

Похожие раздачи по запросу - только:
2019-07-28 U Александр Сергеевич Пушкин - Только для взрослых (2005) PDF, DjVu 27.15 MB ↑ 371 ↓ 82
2019-02-06 U Джен Синсеро - НЕ НОЙ. Только тот, кто перестал сетовать на судьбу, может стать богатым (2019) FB2 941.67 kB ↑ 296 ↓ 7
2018-11-22 U Только не они (2018) WEB-DLRip | iTunes 1.37 GB ↑ 339 ↓ 177
2017-10-16 U Про любовь. Только для взрослых (2017) WEB-DL 1080p | iTunes 3.76 GB ↑ 1781 ↓ 383
2017-10-13 U Маша и медведь: Цирк, да и только [67] (2017) WEB-DLRip от GeneralFilm 91.45 MB ↑ 503 ↓ 76
2017-08-31 U Маша и медведь: Спокойствие, только спокойствие! [66] (2017) WEB-DLRip от GeneralFilm 90.89 MB ↑ 302 ↓ 69

Отзывы
Зарегистрируйтесь чтобы добавить комментарий.
Обратная связь
Copyleft ©