↑↓Torrent.by
Поиск
Логин: Регистрация
Пароль: Восстановить пароль

Ганц: О / Gantz: O (2016) BDRip 1080p от Переулка Переводмана | Р, L, L2, A

Скачать ganc-o-gantz-2016-bdrip-1080p-ot-pereulka-perevodmana-r-l-l2-a.torrent
U Магнитная ссылка Размер: 10.95 GB Раздают: 42 Качают: 31 Добавлен: 2019-12-02 14:43:14
Ганц: О / Gantz: O (2016) BDRip 1080p от Переулка Переводмана | Р, L, L2, A

Название: Ганц: О
Оригинальное название: Gantz: O
Год выхода: 2016
Страна: Япония
Студия: Digital Frontier
Продолжительность: 01:35:12
Жанр: аниме, мультфильм, боевик, фантастика, ужасы

Режиссер: Ясуси Кавамура, Кэйити Саито
В ролях: Саори Хаями, Мао Итимити, Сюити Икэда, Макото Идзубути, Юки Кадзи, Томохиро Каку, Кэндо Кобаяси, Рихито Морио, Тэруаки Огава, Даисукэ Оно, ...

Перевод:
- Профессиональный (многоголосый, закадровый) AlexFilm
- Любительский (многоголосый, закадровый) AniFilm
- Любительский (многоголосый, закадровый) AniDUB
- Любительский (двуголосый, закадровый) LE-Production
- Авторский (одноголосый, закадровый) Чадов Михаил Владимирович
- Субтитры

О фильме: Где-то в Токио расположена комната, где находится чёрная сфера под названием Ганц. Время от времени в комнату телепортируются люди, которые должны были умереть в тот самый момент. Сфера снабжает их оружием и спецкостюмами и отправляет на смертельно опасное задание: убивать пришельцев, обосновавшихся на Земле, и получать за это баллы. С заданий возвращаются не все…

Кодек: x264
Качество: BDRip 1080p
Видео: 1920x1036, 12000 kbps, 23,976 fps
Аудио #1: AC-3, 6 ch, 640 kbps (Rus) - MVO AlexFilm
Аудио #2: AC-3, 6 ch, 640 kbps (Rus) - MVOL AniFilm
Аудио #3: AC-3, 2 ch, 192 kbps (Rus) - MVOL AniDUB
Аудио #4: AC-3, 6 ch, 640 kbps (Rus) - DVOL LE-Production
Аудио #5: AC-3, 6 ch, 640 kbps (Rus) - AVO Чадов Михаил Владимирович
Аудио #6: DTS, 6 ch, 1509 kbps (Jpn)
Аудио #7: AC-3, 2 ch, 192 kbps (Eng)
Субтитры: русские (Forced, Full), английские
Спасибо за исходник


[+] Дополнительная информация
Перевод Переводмана и озвучка Михаила Чадова доступны благодаря Переулку Переводмана и - 6yxaHbl4
Сведение с голосом - Переводман



[+] MediaInfo

x264 [info]: frame I:695   Avg QP:21.03  size:191688
x264 [info]: frame P:30139 Avg QP:23.16  size: 85323
x264 [info]: frame B:106138 Avg QP:25.38  size: 55254
x264 [info]: consecutive B-frames:  2.6%  4.3% 10.1%  8.0% 11.4% 54.7%  3.1%  0.9%  1.4%  1.3%  1.1%  0.7%  0.1%  0.2%  0.1%

Общее
Уникальный идентификатор : 227844037811133585770081256755658549916 (0xAB692A5EABA0ADA8AD479B88CC08EA9C)
Полное имя : Ганц О (Gantz O) 2016 BDRip 1080p.mkv
Формат : Matroska
Версия формата : Version 2
Размер файла : 10,9 Гбайт
Продолжительность : 1 ч. 35 м.
Общий поток : 16,5 Мбит/сек
Дата кодирования : UTC 2019-12-02 05:03:56
Программа кодирования : mkvmerge v4.0.0 ('The Stars were mine') сборка от Jun 6 2010 16:18:42
Библиотека кодирования : libebml v1.0.0 + libmatroska v1.0.0

Видео
Идентификатор : 1
Формат : AVC
Формат/Информация : Advanced Video Codec
Профиль формата : High@L4.1
Параметр CABAC формата : Да
Параметр ReFrames формата : 4 кадра
Идентификатор кодека : V_MPEG4/ISO/AVC
Продолжительность : 1 ч. 35 м.
Битрейт : 12,0 Мбит/сек
Ширина : 1920 пикселей
Высота : 1036 пикселей
Соотношение сторон : 1,85:1
Режим частоты кадров : Постоянный
Частота кадров : 23,976 (24000/1001) кадра/сек
Цветовое пространство : YUV
Субдискретизация насыщенности : 4:2:0
Битовая глубина : 8 бит
Тип развёртки : Прогрессивная
Бит/(Пиксели*Кадры) : 0.252
Размер потока : 7,77 Гбайт (71%)
Библиотека кодирования : x264 core 146 r2538 121396c
Настройки программы : cabac=1 / ref=4 / deblock=1:-2:-2 / analyse=0x3:0x133 / me=umh / subme=11 / psy=1 / psy_rd=1.00:0.00 / mixed_ref=1 / me_range=32 / chroma_me=1 / trellis=2 / 8x8dct=1 / cqm=0 / deadzone=21,11 / fast_pskip=0 / chroma_qp_offset=-2 / threads=12 / lookahead_threads=2 / sliced_threads=0 / nr=0 / decimate=0 / interlaced=0 / bluray_compat=0 / constrained_intra=0 / bframes=14 / b_pyramid=2 / b_adapt=2 / b_bias=0 / direct=3 / weightb=1 / open_gop=0 / weightp=2 / keyint=240 / keyint_min=23 / scenecut=40 / intra_refresh=0 / rc=2pass / mbtree=0 / bitrate=12000 / ratetol=1.0 / qcomp=0.60 / qpmin=0 / qpmax=69 / qpstep=4 / cplxblur=20.0 / qblur=0.5 / ip_ratio=1.40 / pb_ratio=1.30 / aq=2:0.80
Язык : Japanese
Default : Нет
Forced : Нет

Аудио #1
Идентификатор : 2
Формат : AC-3
Формат/Информация : Audio Coding 3
Расширение режима : CM (complete main)
Параметр Endianness формата : Big
Идентификатор кодека : A_AC3
Продолжительность : 1 ч. 35 м.
Вид битрейта : Постоянный
Битрейт : 640 Кбит/сек
Каналы : 6 каналов
Расположение каналов : Front: L C R, Side: L R, LFE
Частота : 48,0 КГц
Частота кадров : 31,250 кадров/сек (1536 spf)
Метод сжатия : С потерями
Размер потока : 436 Мбайт (4%)
Заголовок : MVO AlexFilm
Язык : Russian
Default : Нет
Forced : Нет

Аудио #2
Идентификатор : 3
Формат : AC-3
Формат/Информация : Audio Coding 3
Расширение режима : CM (complete main)
Параметр Endianness формата : Big
Идентификатор кодека : A_AC3
Продолжительность : 1 ч. 35 м.
Вид битрейта : Постоянный
Битрейт : 640 Кбит/сек
Каналы : 6 каналов
Расположение каналов : Front: L C R, Side: L R, LFE
Частота : 48,0 КГц
Частота кадров : 31,250 кадров/сек (1536 spf)
Метод сжатия : С потерями
Размер потока : 436 Мбайт (4%)
Заголовок : MVOL AniFilm
Язык : Russian
Default : Нет
Forced : Нет

Аудио #3
Идентификатор : 4
Формат : AC-3
Формат/Информация : Audio Coding 3
Расширение режима : CM (complete main)
Параметр Endianness формата : Big
Идентификатор кодека : A_AC3
Продолжительность : 1 ч. 35 м.
Вид битрейта : Постоянный
Битрейт : 192 Кбит/сек
Каналы : 2 канала
Расположение каналов : Front: L R
Частота : 48,0 КГц
Частота кадров : 31,250 кадров/сек (1536 spf)
Метод сжатия : С потерями
Размер потока : 131 Мбайт (1%)
Заголовок : MVOL AniDUB
Язык : Russian
Default : Нет
Forced : Нет

Аудио #4
Идентификатор : 5
Формат : AC-3
Формат/Информация : Audio Coding 3
Расширение режима : CM (complete main)
Параметр Endianness формата : Big
Идентификатор кодека : A_AC3
Продолжительность : 1 ч. 35 м.
Вид битрейта : Постоянный
Битрейт : 640 Кбит/сек
Каналы : 6 каналов
Расположение каналов : Front: L C R, Side: L R, LFE
Частота : 48,0 КГц
Частота кадров : 31,250 кадров/сек (1536 spf)
Метод сжатия : С потерями
Размер потока : 436 Мбайт (4%)
Заголовок : DVOL LE-Production
Язык : Russian
Default : Нет
Forced : Нет

Аудио #5
Идентификатор : 6
Формат : AC-3
Формат/Информация : Audio Coding 3
Расширение режима : CM (complete main)
Параметр Endianness формата : Big
Идентификатор кодека : A_AC3
Продолжительность : 1 ч. 35 м.
Вид битрейта : Постоянный
Битрейт : 640 Кбит/сек
Каналы : 6 каналов
Расположение каналов : Front: L C R, Side: L R, LFE
Частота : 48,0 КГц
Частота кадров : 31,250 кадров/сек (1536 spf)
Метод сжатия : С потерями
Размер потока : 436 Мбайт (4%)
Заголовок : AVO Чадов Михаил Владимирович
Язык : Russian
Default : Нет
Forced : Нет

Аудио #6
Идентификатор : 7
Формат : DTS
Формат/Информация : Digital Theater Systems
Режим : 16
Параметр Endianness формата : Big
Идентификатор кодека : A_DTS
Продолжительность : 1 ч. 35 м.
Вид битрейта : Постоянный
Битрейт : 1509 Кбит/сек
Каналы : 6 каналов
Расположение каналов : Front: L C R, Side: L R, LFE
Частота : 48,0 КГц
Частота кадров : 93,750 кадра/сек (512 spf)
Битовая глубина : 24 бит
Метод сжатия : С потерями
Размер потока : 1,00 Гбайт (9%)
Язык : Japanese
Default : Нет
Forced : Нет

Аудио #7
Идентификатор : 8
Формат : AC-3
Формат/Информация : Audio Coding 3
Расширение режима : CM (complete main)
Параметр Endianness формата : Big
Идентификатор кодека : A_AC3
Продолжительность : 1 ч. 35 м.
Вид битрейта : Постоянный
Битрейт : 192 Кбит/сек
Каналы : 2 канала
Расположение каналов : Front: L R
Частота : 48,0 КГц
Частота кадров : 31,250 кадров/сек (1536 spf)
Метод сжатия : С потерями
Размер потока : 131 Мбайт (1%)
Язык : English
Default : Нет
Forced : Нет

Текст #1
Идентификатор : 9
Формат : ASS
Идентификатор кодека : S_TEXT/ASS
Идентификатор кодека/Информация : Advanced Sub Station Alpha
Метод сжатия : Без потерь
Заголовок : Forced
Язык : Russian
Default : Нет
Forced : Нет

Текст #2
Идентификатор : 10
Формат : UTF-8
Идентификатор кодека : S_TEXT/UTF8
Идентификатор кодека/Информация : UTF-8 Plain Text
Заголовок : Forced
Язык : Russian
Default : Нет
Forced : Нет

Текст #3
Идентификатор : 11
Формат : UTF-8
Идентификатор кодека : S_TEXT/UTF8
Идентификатор кодека/Информация : UTF-8 Plain Text
Язык : Russian
Default : Нет
Forced : Нет

Текст #4
Идентификатор : 12
Формат : UTF-8
Идентификатор кодека : S_TEXT/UTF8
Идентификатор кодека/Информация : UTF-8 Plain Text
Язык : English
Default : Нет
Forced : Нет

Меню
00:00:00.000 : en:Chapter 01
00:04:29.894 : en:Chapter 02
00:15:29.053 : en:Chapter 03
00:26:43.727 : en:Chapter 04
00:42:17.785 : en:Chapter 05
00:58:29.172 : en:Chapter 06
01:10:47.034 : en:Chapter 07
01:21:59.247 : en:Chapter 08
01:30:03.397 : en:Chapter 09
01:35:11.831 : en:Chapter 10



Скриншоты:
[+] Всего файлов в раздаче - 1:
Ганц О (Gantz O) 2016 BDRip 1080p.mkv10.95 GB

Отзывы
Зарегистрируйтесь чтобы добавить комментарий.
Обратная связь
Copyleft ©