↑↓torrent.by
Поиск
Логин: Регистрация
Пароль: Восстановить пароль

Гений / Страховой агент [01-16 из 16] (2018) WEBRip от GeneralFilm

Скачать geniy-strahovoy-agent-01-16-iz-2018-webrip-ot-generalfilm.torrent
U Магнитная ссылка Размер: 8.70 GB Раздают: 68 Качают: 122 Добавлен: 2019-12-03 10:46:47
Гений / Страховой агент [01-16 из 16] (2018) WEBRip от GeneralFilm

Оригинальное название: Гений / Страховой агент
Год выпуска: 2018
Жанр:  Криминальный фильм, мелодрама
Выпущено: Россия, ООО Студия Панорама
Режиссер: Ольга Кандидатова
В ролях: Владимир Данай, Анна Арефьева, Татьяна Трунова, Варвара Владимирова, Дмитрий Поднозов, Илья Сланевский, Андрей Феськов, Сергей Колос, Денис Пьянов, Данила Воропаев, Андрей Лёвин, Глафира Козулина, Андрей Кондратьев, Алексей Титков, Павел Григорьев, Александра Сыдорук, Владимир Постников, Андрей Павловец, Мария Русских, Сергей Агафонов, Гульназ Насырова, Игорь Агеев, Максим Фомин, Виталий Олечкин, Борис Хасанов, Наталья Парашкина, Дарья Румянцева, Алёна Баркова, Наталья Мызникова, Ирина Горкунова, Анна Санникова, Станислав Шапкин, Сергей Гамов, Михаил Вассербаум, Андрей Хитрин, Александр Удальцов, Дмитрий Аршанский, Лариса Логинова, Андрей Астраханцев, Лариса Климова

О фильме: После предательства союзников бывший мошенник Феликс (Илья Сланевский) «сдаёт» банду своих подельников в обмен на условный срок и участие в программе защиты свидетелей. В рамках программы Феликса перевозят в Санкт-Петербург, меняя его внешность, паспорт и жизнь. Теперь его зовут Сергей Кривошипов (Владимир Данай) и, будучи в образе совершенно другого человека, Феликс устраивается на работу в страховую компанию. Благодаря тонкому уму, проницательности и наблюдательности, он решает самые сложные вопросы, наживая при этом новых врагов.

Файл
Качество: WEBRip
Видео: XviD build 73, 720x400 (16:9), 25.000 fps, ~ 1420 Kbps (~ 0.200 bit/pixel)
Аудио: 48.0 kHz, AC3, 2/0 ch, 192 kbps
Продолжительность: 14 х ~ 00:48:00
Перевод: Не требуется [Русский]
Cубтитры: нет

Релиз:
[+] MediaInfo
General
Complete name               : D:RazdachiGenij.2018.WEBRip.GeneralFilme01.Genij.avi
Format                      : AVI
Format/Info                 : Audio Video Interleave
File size                   : 557 MiB
Duration                    : 47 min 56 s
Overall bit rate            : 1 625 kb/s
Writing application         : VirtualDubMod 1.5.10.3 | www.virtualdub-fr.org || (build 2550/release)
Writing library             : VirtualDubMod build 2550/release

Video
ID                          : 0
Format                      : MPEG-4 Visual
Format profile              : Advanced Simple@L5
Format settings             : BVOP1 / Custom Matrix
Format settings, BVOP       : 1
Format settings, QPel       : No
Format settings, GMC        : No warppoints
Format settings, Matrix     : Custom
Codec ID                    : XVID
Codec ID/Hint               : XviD
Duration                    : 47 min 56 s
Bit rate                    : 1 423 kb/s
Width                       : 720 pixels
Height                      : 400 pixels
Display aspect ratio        : 16:9
Frame rate                  : 25.000 FPS
Color space                 : YUV
Chroma subsampling          : 4:2:0
Bit depth                   : 8 bits
Scan type                   : Progressive
Compression mode            : Lossy
Bits/(Pixel*Frame)          : 0.198
Stream size                 : 488 MiB (88%)
Writing library             : XviD 73

Audio
ID                          : 1
Format                      : AC-3
Format/Info                 : Audio Coding 3
Commercial name             : Dolby Digital
Codec ID                    : 2000
Duration                    : 47 min 56 s
Bit rate mode               : Constant
Bit rate                    : 192 kb/s
Channel(s)                  : 2 channels
Channel layout              : L R
Sampling rate               : 48.0 kHz
Frame rate                  : 31.250 FPS (1536 SPF)
Compression mode            : Lossy
Stream size                 : 65.8 MiB (12%)
Alignment                   : Split across interleaves
Interleave, duration        : 40  ms (1.00 video frame)
Interleave, preload duratio : 500  ms
Service kind                : Complete Main



Скриншоты:
[+] Всего файлов в раздаче - 16:
e01.Genij.avi557.09 MB
e02.Genij.avi557.24 MB
e03.Genij.avi557.27 MB
e04.Genij.avi556.63 MB
e05.Genij.avi556.88 MB
e06.Genij.avi556.89 MB
e07.Genij.avi557.49 MB
e08.Genij.avi557.28 MB
e09.Genij.avi557.21 MB
e10.Genij.avi557.19 MB
e11.Genij.avi556.99 MB
e12.Genij.avi557.02 MB
e13.Genij.avi556.59 MB
e14.Genij.avi556.51 MB
e15.Genij.avi556.85 MB
e16.Genij.avi556.86 MB

Похожие раздачи по запросу - гений:
2019-12-03 U Гений / Страховой агент [01-16 из 16] (2018) WEBRip-AVC от GeneralFilm 9.38 GB ↑ 81 ↓ 62

Отзывы
Зарегистрируйтесь чтобы добавить комментарий.
Обратная связь
Copyleft ©