↑↓torrent.by
Поиск
Логин: Регистрация
Пароль: Восстановить пароль

Рэмбо: Последняя кровь / Rambo: Last Blood (2019) HDRip-AVC от OlLanDGroup | iTunes

Скачать rembo-poslednyaya-krov-rambo-last-blood-2019-hdrip-avc-ot-ollandgroup-itunes.torrent
U Магнитная ссылка Размер: 1.53 GB Раздают: 629 Качают: 138 Добавлен: 2019-12-03 16:01:58
Рэмбо: Последняя кровь / Rambo: Last Blood (2019) HDRip-AVC от OlLanDGroup | iTunes

Рэмбо: Последняя кровь / Rambo: Last Blood
«Настоящий герой бьётся до конца»

Год выпуска: 2019
Страна: США, Испания, Болгария
Производство: Balboa Productions, Campbell Grobman Films, Dadi Film Group
Жанр:  Боевик, триллер, приключения, вестерн

Режиссёр: Адриан Грюнберг
В ролях: Сильвестр Сталлоне, Пас Вега, Ивет Монреаль, Луис Мэндилор, Оскар Хаенада, Шила Шах, Серхио Перис-Менчета, Джессика Мэдсен, Хоакин Косио, Адриана Барраса, Джени Ким, Паскасио Лопес, Александр Димитров

Перевод: Дублированный | [iTunes]
Субтитры: Нет
Реклама: Отсутствует

Описание: Он хранил секреты всю жизнь, но пришло время взглянуть в глаза прошлому. В последний раз собраться и стать безжалостной машиной для убийства. Рэмбо снова встанет на смертельно опасный путь — путь мести, который ему придется пройти до конца.

Качество: HDRip-AVC | BDRip 1080p | Rambo.Last.Blood.2019.BDRip.1080p
Продолжительность: 01:41:06

Формат: MKV
Видео кодек: MPEG-4 AVC
Аудио кодек: AC3
Видео: 1024x428 (2.40:1), 24,000 fps, x264 ~1 793 kbps avg, 0.170 bit/pixel
Аудио: 48 kHz, AC3 Dolby Digital, 3/2 (L,C,R,l,r) + LFE ch, ~384.00 kbps avg | RUS (iTunes)

Дата премьеры (мир): 18 сентября 2019
Дата премьеры (РФ): 19 сентября 2019, «MEGOGO Distribution»
Цифровой релиз: 3 декабря 2019, «Megogo Distribution»

Релиз:


[+] MediaInfo

Общее
Уникальный идентификатор                 : 296874981835384798179295385893000322834 (0xDF580AAE87B68FC16FCEF2B7119E1F12)
Полное имя                               : F:OlLanDGroupRambo.Last.Blood.2019.BDRip(AVC).OllanDGroup.mkv
Формат                                   : Matroska
Версия формата                           : Version 4 / Version 2
Размер файла                             : 1,53 Гбайт
Продолжительность                        : 1 ч. 41 м.
Общий поток                              : 2172 Кбит/сек
Название фильма                          : Rambo.Last.Blood.2019   #TorpedoUK#
Дата кодирования                         : UTC 2019-12-03 11:48:38
Программа кодирования                    : mkvmerge v29.0.0 ('Like It Or Not') 64-bit
Библиотека кодирования                   : libebml v1.3.6 + libmatroska v1.4.9

Видео
Идентификатор                            : 1
Формат                                   : AVC
Формат/Информация                        : Advanced Video Codec
Профиль формата                          : High@L4.1
Параметр CABAC формата                   : Да
Параметр ReFrames формата                : 10 кадров
Идентификатор кодека                     : V_MPEG4/ISO/AVC
Продолжительность                        : 1 ч. 41 м.
Битрейт                                  : 1793 Кбит/сек
Ширина                                   : 1024 пикселя
Высота                                   : 428 пикселей
Соотношение сторон                       : 2,40:1
Режим частоты кадров                     : Постоянный
Частота кадров                           : 24,000 кадра/сек
Цветовое пространство                    : YUV
Субдискретизация насыщенности            : 4:2:0
Битовая глубина                          : 8 бит
Тип развёртки                            : Прогрессивная
Бит/(Пиксели*Кадры)                      : 0.170
Размер потока                            : 1,26 Гбайт (82%)
Библиотека кодирования                   : x264 core 146 r2538 121396c
Настройки программы                      : cabac=1 / ref=10 / deblock=1:-3:-3 / analyse=0x3:0x113 / me=umh / subme=11 / psy=1 / psy_rd=0.98:0.04 / mixed_ref=1 / me_range=48 / chroma_me=1 / trellis=2 / 8x8dct=1 / cqm=0 / deadzone=21,11 / fast_pskip=1 / chroma_qp_offset=-6 / threads=6 / lookahead_threads=1 / sliced_threads=0 / nr=0 / decimate=1 / interlaced=0 / bluray_compat=0 / constrained_intra=0 / bframes=11 / b_pyramid=2 / b_adapt=2 / b_bias=0 / direct=3 / weightb=1 / open_gop=0 / weightp=2 / keyint=240 / keyint_min=24 / scenecut=40 / intra_refresh=0 / rc_lookahead=40 / rc=2pass / mbtree=0 / bitrate=1793 / ratetol=1.0 / qcomp=0.60 / qpmin=0 / qpmax=69 / qpstep=4 / cplxblur=20.0 / qblur=0.5 / vbv_maxrate=50000 / vbv_bufsize=62500 / nal_hrd=none / filler=0 / ip_ratio=1.40 / pb_ratio=1.30 / aq=1:1.00
Язык                                     : English
Default                                  : Да
Forced                                   : Нет

Аудио
Идентификатор                            : 2
Формат                                   : AC-3
Формат/Информация                        : Audio Coding 3
Расширение режима                        : CM (complete main)
Параметр Endianness формата              : Big
Идентификатор кодека                     : A_AC3
Продолжительность                        : 1 ч. 41 м.
Вид битрейта                             : Постоянный
Битрейт                                  : 384 Кбит/сек
Каналы                                   : 6 каналов
Расположение каналов                     : Front: L C R, Side: L R, LFE
Частота                                  : 48,0 КГц
Частота кадров                           : 31,250 кадров/сек (1536 spf)
Битовая глубина                          : 16 бит
Метод сжатия                             : С потерями
Размер потока                            : 278 Мбайт (18%)
Заголовок                                : DUB  [iTunes]
Язык                                     : Russian
Default                                  : Да
Forced                                   : Нет

Меню
00:00:00.000                             : :Chapter 1
00:07:53.375                             : :Chapter 2
00:14:11.208                             : :Chapter 3
00:21:29.833                             : :Chapter 4
00:30:17.625                             : :Chapter 5
00:41:13.292                             : :Chapter 6
00:51:15.500                             : :Chapter 7
00:57:20.292                             : :Chapter 8
01:08:21.375                             : :Chapter 9
01:16:52.333                             : :Chapter 10
01:25:36.833                             : :Chapter 11
01:33:57.583                             : :Chapter 12



Скриншоты:
[+] Всего файлов в раздаче - 1:
Rambo.Last.Blood.2019.BDRip(AVC).OllanDGroup.mkv1.53 GB

Похожие раздачи по запросу - рэмбо:
2019-12-04 U Рэмбо: Последняя кровь / Rambo: Last Blood (2019) HDRip | iTunes 748.24 MB ↑ 700 ↓ 36
2019-12-03 U Рэмбо: Последняя кровь / Rambo: Last Blood (2019) BDRip 1080p | iTunes 7.69 GB ↑ 2033 ↓ 1213
2019-11-25 U Рэмбо: Последняя кровь / Рембо: Остання кров / Rambo: Last Blood (2019) WEBRip 1080p | Line | UKR 3.28 GB ↑ 307 ↓ 73

Отзывы
Зарегистрируйтесь чтобы добавить комментарий.
Загрузите программу
  uTorrent.exe
Обратная связь
Copyleft ©