↑↓torrent.by
Поиск
Логин: Регистрация
Пароль: Восстановить пароль

Рэмбо: Последняя кровь / Rambo: Last Blood (2019) HDRip-AVC от ExKinoRay | iTunes

Скачать rembo-poslednyaya-krov-rambo-last-blood-2019-hdrip-avc-ot-exkinoray-itunes.torrent
U Магнитная ссылка Размер: 741.55 MB Раздают: 106 Качают: 24 Добавлен: 2019-12-04 18:31:07
Рэмбо: Последняя кровь / Rambo: Last Blood (2019) HDRip-AVC от ExKinoRay | iTunes

Название: Рэмбо: Последняя кровь
Оригинальное название: Rambo: Last Blood
Год выпуска: 2019
Жанр:  Боевик, триллер, приключения
Режиссер: Адриан Грюнберг
В ролях: Сильвестр Сталлоне, Пас Вега, Ивет Монреаль, Луис Мэндилор, Оскар Хаенада, Шила Шах, Серхио Перис-Менчета, Джессика Мэдсен, Хоакин Косио, Адриана Барраса, Джени Ким, Паскасио Лопес, Александр Димитров

О фильме:
Прошло уже почти четыре десятилетия с того времени, как легендарный Джон Рэмбо пустил свою первую кровь. За свою жизнь герой прошел многое, сколько секретов он хранит на старости лет… Мужчина видел, как умирают все, кого он любил – кого-то Джон смог захоронить, а от кого-то не осталось и кусочка. В прошлом Рэмбо был настоящей машиной для убийства. А многое ли поменялось? Прошлое никак не отпускает мужчину – оно за ним пришло. В последний раз Джон должен использовать все свои умения, чтобы пролить кровь, много крови. Это невероятно опасный путь, на который Рэмбо встал много лет тому назад, и который он обязан пройти до конца.

Страна: США, Испания, Болгария
Студия: Balboa Productions, Campbell Grobman Films, Dadi Film Group
Продолжительность: 01:41:06
Перевод: Дублированный | iTunes

Файл
Формат: MKV
Качество: HDRip-AVC  
Видео: MPEG-4 AVC, 784x328, - 954 Кбит/с
Аудио:  AAC-HE, 2 ch, - 76 Кбит/с
Субтитры: Нет


[+] MI
Общее
Уникальный идентификатор : 115476161744181839790317072611721232730 (0x56DFE657C268D5BCA105B9DEC79E415A)
Полное имя : D:MOVIESRambo.Last.Blood.2019.HDRip-AVC.ExKinoRay.mkv
Формат : Matroska
Версия формата : Version 4 / Version 2
Размер файла : 742 Мбайт
Продолжительность : 1 ч. 41 м.
Общий поток : 1025 Кбит/сек
Дата кодирования : UTC 2019-12-04 10:51:55
Программа кодирования : mkvmerge v35.0.0 ('All The Love In The World') 64-bit
Библиотека кодирования : libebml v1.3.9 + libmatroska v1.5.2

Видео
Идентификатор : 1
Формат : AVC
Формат/Информация : Advanced Video Codec
Профиль формата : High@L4.1
Параметр CABAC формата : Да
Параметр RefFrames формата : 12 кадров
Идентификатор кодека : V_MPEG4/ISO/AVC
Продолжительность : 1 ч. 41 м.
Битрейт : 954 Кбит/сек
Ширина : 784 пикселя
Высота : 328 пикселей
Соотношение сторон : 2,40:1
Режим частоты кадров : Постоянный
Частота кадров : 24,000 кадра/сек
Цветовое пространство : YUV
Субдискретизация насыщенности : 4:2:0
Битовая глубина : 8 бит
Тип развёртки : Прогрессивная
Бит/(Пиксели*Кадры) : 0.155
Размер потока : 685 Мбайт (92%)
Библиотека кодирования : x264 core 152 r2851kMod ba24899
Настройки программы : cabac=1 / ref=12 / deblock=1:-3:-2 / analyse=0x3:0x133 / me=umh / subme=10 / psy=1 / fade_compensate=0.00 / psy_rd=1.00:0.14 / mixed_ref=1 / me_range=32 / chroma_me=1 / trellis=2 / 8x8dct=1 / cqm=0 / deadzone=21,11 / fast_pskip=0 / chroma_qp_offset=-3 / threads=6 / lookahead_threads=1 / sliced_threads=0 / nr=0 / decimate=0 / interlaced=0 / bluray_compat=0 / constrained_intra=0 / bframes=12 / b_pyramid=2 / b_adapt=2 / b_bias=0 / direct=3 / weightb=1 / open_gop=0 / weightp=2 / keyint=240 / keyint_min=24 / scenecut=40 / intra_refresh=0 / rc_lookahead=40 / rc=2pass / mbtree=1 / bitrate=954 / ratetol=1.0 / qcomp=0.60 / qpmin=0 / qpmax=69 / qpstep=4 / cplxblur=20.0 / qblur=0.5 / ip_ratio=1.40 / aq=3:1.00
Default : Да
Forced : Нет

Аудио
Идентификатор : 2
Формат : AAC
Формат/Информация : Advanced Audio Codec
Профиль формата : HE-AAC / LC
Идентификатор кодека : A_AAC
Продолжительность : 1 ч. 41 м.
Битрейт : 76,0 Кбит/сек
Каналы : 2 канала
Расположение каналов : Front: L R
Частота : 48,0 КГц / 24,0 КГц
Частота кадров : 23,438 кадра/сек (1024 SPF)
Метод сжатия : С потерями
Задержка видео : 31 мс.
Размер потока : 55,0 Мбайт (7%)
Язык : Russian
Default : Да
Forced : Нет

Меню
00:00:00.000 : :Chapter 1
00:07:53.375 : :Chapter 2
00:14:11.208 : :Chapter 3
00:21:29.833 : :Chapter 4
00:30:17.625 : :Chapter 5
00:41:13.292 : :Chapter 6
00:51:15.500 : :Chapter 7
00:57:20.292 : :Chapter 8
01:08:21.375 : :Chapter 9
01:16:52.333 : :Chapter 10
01:25:36.833 : :Chapter 11
01:33:57.583 : :Chapter 12



Скриншоты:
[+] Всего файлов в раздаче - 1:
Rambo.Last.Blood.2019.HDRip-AVC.ExKinoRay.mkv741.55 MB

Показать еще раздачи по запросу рэмбо:
2019-12-18 U Рэмбо: Последняя кровь / Rambo: Last Blood (2019) BDRip 720p от селезень | Расширенная версия | iTunes 3.52 GB ↑ 55 ↓ 18
2019-12-18 U Рэмбо: Последняя кровь / Rambo: Last Blood (2019) BDRemux 1080p от селезень | Расширенная версия | iTunes 15.15 GB ↑ 46 ↓ 24
2019-12-18 U Рэмбо: Последняя кровь / Rambo: Last Blood (2019) BDRip 1080p от селезень | Расширенная версия | iTunes 7.16 GB ↑ 107 ↓ 35
2019-12-18 U Рэмбо: Последняя кровь / Rambo: Last Blood (2019) BDRip от MegaPeer | Расширенная версия | iTunes 1.42 GB ↑ 204 ↓ 40
2019-12-10 U Рэмбо: Последняя кровь / Rambo: Last Blood (2019) UHD BDRemux 2160p от селезень | 4K | HDR | Dolby Vision TV | Театральная версия | iTunes 35.57 GB ↑ 46 ↓ 24
2019-12-09 U Рэмбо: Последняя кровь / Rambo: Last Blood (2019) HDRip-AVC от ExKinoRay | iTunes | Расширенная версия / Extended Cut 1.40 GB ↑ 177 ↓ 50
2019-12-08 U Рэмбо: Последняя кровь / Rambo: Last Blood (2019) BDRip 1080p от селезень | iTunes 8.97 GB ↑ 211 ↓ 126

Отзывы
Зарегистрируйтесь чтобы добавить комментарий.
Обратная связь
Copyleft ©