↑↓torrent.by
Поиск
Логин: Регистрация
Пароль: Восстановить пароль

Иные / Freaks (2018) BDRip 1080p от селезень | iTunes

Скачать inye-freaks-2018-bdrip-1080p-ot-selezen-itunes.torrent
U Магнитная ссылка Размер: 7.25 GB Раздают: 331 Качают: 32 Добавлен: 2019-12-05 03:42:47
Иные / Freaks (2018) BDRip 1080p от селезень | iTunes

Название: Иные
Оригинальное название: Freaks
Год выхода: 2018
Жанр: Фантастика, триллер, драма
Режиссер: Зак Липовски, Адам Б. Стейн
В ролях: Эмиль Хирш, Брюс Дерн, Грэйс Пак, Аманда Крю, Лекси Колкер, Ава Телек, Мишель Харрисон, Мэтти Финочио, Алекс Паунович, АрДжей Фезерстонхо

О фильме: В доме тихого одноэтажного района живёт отец-одиночка с семилетней дочерью Хлои. Папа трясётся над девочкой: запрещает ей выходить из дома, общаться с незнакомыми, а о том, чтобы поиграть с другими детьми, речи вообще не идёт — ведь мир полон опасных людей, которые только и ждут, чтобы напасть и убить. Поэтому маленькая Хлои придумывает себе развлечения сама и даже иногда видит в чулане призрака. Однажды, не сумев противостоять соблазну, девочка всё-таки выходит на улицу, чтобы купить мороженое. Подружившись со старым мороженщиком, Хлои с удивлением обнаруживает, что мир не так опасен, как пугал её отец.

Страна: Канада, США
Студия: Amazing, Bloomgarden Films, My Way Entertainment
Продолжительность: 01:44:56
Перевод: Дублированный | iTunes

Качество: BDRip 1080p
Видео: MPEG-4 AVC, 1920x818, 8870 Kbit/s, 23.976 fps
Аудио #01: 48 kHz, AC3, 5.1, 384 Kbps | iTunes | RUS |
Аудио #02: 48 kHz, AC3, 5.1, 640 Kbps | Оригинал |  ENG |
Субтитры: Английские

Релиз:


[+] MI
General
Unique ID                   : 223265818723103879779721861318184843900 (0xA7F76EBDCE1A4D6B8F01D28A9B2CBA7C)
Complete name               : F:Video111Freaks.2018.BDRip.1080p.seleZen.mkv
Format                      : Matroska
Format version              : Version 4
File size                   : 7.25 GiB
Duration                    : 1 h 44 min
Overall bit rate            : 9 894 kb/s
Movie name                  : Freaks 2018 from селезень
Encoded date                : UTC 2019-12-04 14:43:51
Writing application         : mkvmerge v40.0.0 ('Old Town Road + Pony') 64-bit
Writing library             : libebml v1.3.9 + libmatroska v1.5.2

Video
ID                          : 1
Format                      : AVC
Format/Info                 : Advanced Video Codec
Format profile              : High@L4.1
Format settings             : CABAC / 5 Ref Frames
Format settings, CABAC      : Yes
Format settings, Reference  : 5 frames
Codec ID                    : V_MPEG4/ISO/AVC
Duration                    : 1 h 44 min
Bit rate                    : 8 870 kb/s
Width                       : 1 920 pixels
Height                      : 818 pixels
Display aspect ratio        : 2.35:1
Frame rate mode             : Constant
Frame rate                  : 23.976 (24000/1001) FPS
Color space                 : YUV
Chroma subsampling          : 4:2:0
Bit depth                   : 8 bits
Scan type                   : Progressive
Bits/(Pixel*Frame)          : 0.236
Stream size                 : 6.50 GiB (90%)
Title                       : Encoded by seleZen
Writing library             : x264 core 148 r2705kMod 3f5ed56
Encoding settings           : cabac=1 / ref=5 / deblock=1:-2:-2 / analyse=0x3:0x113 / me=umh / subme=11 / psy=1 / fade_compensate=0.00 / psy_rd=1.03:0.03 / mixed_ref=1 / me_range=32 / chroma_me=1 / trellis=2 / 8x8dct=1 / cqm=0 / deadzone=21,11 / fast_pskip=0 / chroma_qp_offset=-3 / threads=24 / lookahead_threads=6 / sliced_threads=0 / nr=0 / decimate=0 / interlaced=0 / bluray_compat=0 / constrained_intra=0 / fgo=0 / bframes=10 / b_pyramid=2 / b_adapt=2 / b_bias=0 / direct=3 / weightb=1 / open_gop=0 / weightp=2 / keyint=240 / keyint_min=23 / scenecut=40 / intra_refresh=0 / rc_lookahead=50 / rc=2pass / mbtree=0 / bitrate=8870 / ratetol=1.0 / qcomp=0.60 / qpmin=0 / qpmax=51 / qpstep=4 / cplxblur=20.0 / qblur=0.5 / vbv_maxrate=50000 / vbv_bufsize=62500 / nal_hrd=none / filler=0 / ip_ratio=1.40 / pb_ratio=1.30 / aq=3:0.80
Language                    : English
Default                     : Yes
Forced                      : No

Audio #1
ID                          : 2
Format                      : AC-3
Format/Info                 : Audio Coding 3
Commercial name             : Dolby Digital
Codec ID                    : A_AC3
Duration                    : 1 h 44 min
Bit rate mode               : Constant
Bit rate                    : 384 kb/s
Channel(s)                  : 6 channels
Channel layout              : L R C LFE Ls Rs
Sampling rate               : 48.0 kHz
Frame rate                  : 31.250 FPS (1536 SPF)
Bit depth                   : 16 bits
Compression mode            : Lossy
Stream size                 : 288 MiB (4%)
Title                       : iTunes
Language                    : Russian
Service kind                : Complete Main
Default                     : Yes
Forced                      : Yes

Audio #2
ID                          : 3
Format                      : AC-3
Format/Info                 : Audio Coding 3
Commercial name             : Dolby Digital
Codec ID                    : A_AC3
Duration                    : 1 h 44 min
Bit rate mode               : Constant
Bit rate                    : 640 kb/s
Channel(s)                  : 6 channels
Channel layout              : L R C LFE Ls Rs
Sampling rate               : 48.0 kHz
Frame rate                  : 31.250 FPS (1536 SPF)
Bit depth                   : 16 bits
Compression mode            : Lossy
Stream size                 : 480 MiB (6%)
Title                       : Original
Language                    : English
Service kind                : Complete Main
Default                     : No
Forced                      : No

Text
ID                          : 4
Format                      : UTF-8
Codec ID                    : S_TEXT/UTF8
Codec ID/Info               : UTF-8 Plain Text
Duration                    : 1 h 39 min
Bit rate                    : 47 b/s
Count of elements           : 1470
Stream size                 : 34.5 KiB (0%)
Title                       : Full
Language                    : English
Default                     : No
Forced                      : No

Menu
00:00:00.000                : :Chapter 01
00:08:33.763                : :Chapter 02
00:19:04.643                : :Chapter 03
00:26:30.756                : :Chapter 04
00:34:19.599                : :Chapter 05
00:40:53.534                : :Chapter 06
00:47:31.474                : :Chapter 07
00:57:44.586                : :Chapter 08
01:06:11.301                : :Chapter 09
01:14:00.186                : :Chapter 10
01:24:38.824                : :Chapter 11
01:33:46.621                : :Chapter 12
01:41:14.151                : :Chapter 13



Скриншоты:
[+] Всего файлов в раздаче - 1:
Freaks.2018.BDRip.1080p.seleZen.mkv7.25 GB

Похожие раздачи по запросу - иные:
2020-05-31 U Иные / Freaks (2018) BDRip от Twister & ExKinoRay | Лицензия 1.46 GB ↑ 65 ↓ 13
2019-11-28 U Иные / Freaks (2018) WEB-DLRip | iTunes 1.46 GB ↑ 1567 ↓ 500
2019-11-28 U Иные / Freaks (2018) WEB-DL 1080p | iTunes 3.63 GB ↑ 1763 ↓ 789

Отзывы
Зарегистрируйтесь чтобы добавить комментарий.
Загрузите программу
  uTorrent.exe
Обратная связь
Copyleft ©