↑↓Torrent.by
Поиск
Логин: Регистрация
Пароль: Восстановить пароль

Эпидемия [01-04 из 08] (2019) WEBRip от GeneralFilm

Скачать epidemiya-01-04-iz-08-2019-webrip-ot-generalfilm.torrent
U Магнитная ссылка Размер: 2.18 GB Раздают: 40 Качают: 84 Добавлен: 2019-12-05 13:37:11
Эпидемия [01-04 из 08] (2019) WEBRip от GeneralFilm

Оригинальное название: Эпидемия
Год выпуска: 2019
Жанр:  Фильм-катастрофа, фэнтези, экранизация
Выпущено: Россия, PREMIER Studios
Режиссер: Павел Костомаров
В ролях: Кирилл Кяро, Виктория Исакова, Александр Робак, Марьяна Спивак, Савелий Кудряшов, Наталья Земцова, Юрий Кузнецов, Анна Михалкова, Александр Яценко, Игорь Савочкин, Павел Ворожцов, Артём Сучков, Константин Балакирев

О фильме: Жёсткая семейная драма на фоне глобальной катастрофы, «Эпидемия» основана на романе Яны Вагнер «Вонгозеро», переведённом на 11 языков. В основе сюжета - неизвестный смертельный вирус, который быстро разрастается до страшной эпидемии. Сергей в компании своей новой возлюбленной и её сына-аутиста, а также бывшей жены, их сына и ещё нескольких примкнувших к ним попутчиков пытается спастись за границами карантина. Где-то далеко, на необитаемом острове в Карелии, стоит охотничий домик, где они смогут начать все с нуля. Но дорога в новую жизнь будет непростой, ведь бегут герои не только от глобальной катастрофы, но и личной семейной драмы.

Файл
Качество: WEBRip
Видео: XviD build 73, 720x304 (2.37:1), 25.000 fps, 1200 Kbps (0.220 bit/pixel)
Аудио: 48.0 kHz, AC3, 2/0 ch, 192 kbps
Продолжительность: 4 х ~ 00:55:00
Перевод: Не требуется [Русский]
Cубтитры: нет

Релиз:


[+] MediaInfo
General
Complete name               : D:RazdachiEpidemija.2019.WEBRip.GeneralFilme01.Epidemija.avi
Format                      : AVI
Format/Info                 : Audio Video Interleave
File size                   : 558 MiB
Duration                    : 55 min 44 s
Overall bit rate            : 1 399 kb/s
Writing application         : VirtualDubMod 1.5.10.3 | www.virtualdub-fr.org || (build 2550/release)
Writing library             : VirtualDubMod build 2550/release

Video
ID                          : 0
Format                      : MPEG-4 Visual
Format profile              : Advanced Simple@L5
Format settings             : BVOP1 / Custom Matrix
Format settings, BVOP       : 1
Format settings, QPel       : No
Format settings, GMC        : No warppoints
Format settings, Matrix     : Custom
Codec ID                    : XVID
Codec ID/Hint               : XviD
Duration                    : 55 min 44 s
Bit rate                    : 1 197 kb/s
Width                       : 720 pixels
Height                      : 304 pixels
Display aspect ratio        : 2.35:1
Frame rate                  : 25.000 FPS
Color space                 : YUV
Chroma subsampling          : 4:2:0
Bit depth                   : 8 bits
Scan type                   : Progressive
Compression mode            : Lossy
Bits/(Pixel*Frame)          : 0.219
Stream size                 : 477 MiB (86%)
Writing library             : XviD 73

Audio
ID                          : 1
Format                      : AC-3
Format/Info                 : Audio Coding 3
Commercial name             : Dolby Digital
Codec ID                    : 2000
Duration                    : 55 min 44 s
Bit rate mode               : Constant
Bit rate                    : 192 kb/s
Channel(s)                  : 2 channels
Channel layout              : L R
Sampling rate               : 48.0 kHz
Frame rate                  : 31.250 FPS (1536 SPF)
Compression mode            : Lossy
Stream size                 : 76.5 MiB (14%)
Alignment                   : Split across interleaves
Interleave, duration        : 40  ms (1.00 video frame)
Interleave, preload duratio : 500  ms
Service kind                : Complete Main



Скриншоты:
[+] Всего файлов в раздаче - 4:
e01.Epidemija.avi557.61 MB
e02.Epidemija.avi556.35 MB
e03.Epidemija.avi557.70 MB
e04.Epidemija.avi557.64 MB

Показать еще раздачи по запросу эпидемия:
2020-01-09 U Эпидемия [01-08 из 08] (2019) WEBRip от Generalfilm | КПК 1.49 GB ↑ 45 ↓ 33
2020-01-08 U Эпидемия [01-08 из 08] (2019) WEBRip 1080p 14.33 GB ↑ 40 ↓ 105
2020-01-04 U Эпидемия [01-08 из 08] (2019) WEBRip от Files-x 5.06 GB ↑ 154 ↓ 269
2020-01-03 U Эпидемия[01х01-08 из 08] (2019) WEBRip-AVC 6.16 GB ↑ 21 ↓ 4
2020-01-03 U Эпидемия [01-08 из 08] (2019) WEBRip-AVC от ExKinoRay 6.33 GB ↑ 97 ↓ 134
2020-01-03 U Эпидемия [01-08 из 08] (2019) WEBRip от GeneralFilm 4.35 GB ↑ 148 ↓ 352
2020-01-03 U Эпидемия [01-08 из 08] (2019) WEBRip-AVC от Files-x 5.04 GB ↑ 37 ↓ 86

Отзывы
Зарегистрируйтесь чтобы добавить комментарий.
Обратная связь
Copyleft ©